.
Авторизация | Регистрация
bitok.xyz
» » Последствия / Posledice / Consequences (2018) WEB-DLRip [VO] торрент скачать бесплатно


    Последствия / Posledice / Consequences (2018) WEB-DLRip [VO] торрент скачать бесплатно

    Дата: 30-12-2019, 05:00 | .torrent скачали: 0

    Последствия / Posledice / Consequences (2018) WEB-DLRip [VO]Производство: Словения, Австрия/100, NuFrame, Temporama, Zwinger Film
    Жанр: Драма
    Режиссер: Дарко Станте

    Актеры
    Matej Zemljic, Тимон Стурбей, Gasper Markun, Lovro Zafred, Lea Cok, Росана Хрибар, Деян Спасич, Blaz Setnikar, Iztok Drabik Jug, Матьяж Пикало

    Описание

    Трудный подросток Андрей уже исчерпал терпение родителей. Парень предстает перед судом за мошенничество, и отправляется в центр для несовершеннолетних правонарушителей, где встречает соответствующую компанию. Стойко выдержав жестокий обряд посвящения, Андрей завоевывает уважение и дружбу агрессивного главаря местной банды.

    Продолжительность: 01: 35: 34
    Качество видео: WEB-DLRip
    Перевод: Одноголосый любительский
    Субтитры: Отсутствуют
    Видео: Xvid, 720x432, ~1534 Kbps
    Аудио 1: AC3, 2 ch, 192 Kbps - Русский (VO - Анатолий Ашмарин)
    Аудио 2: AC3, 6 ch, 384 Kbps - Словенский
    Общее
    Полное имя : C: UsersDesktopКИНОПоследствия (2018, Словен-Австрия, драма-крим, АВИ, 1.42Гб)Последствия.avi
    Формат : AVI
    Формат/Информация : Audio Video Interleave
    Размер файла : 1, 42 Гбайт
    Продолжительность : 1 ч. 35 м.
    Общий поток : 2124 Кбит/сек
    Программа кодирования : VirtualDubModRus 1.5.10.2 (build 2542/release)
    Библиотека кодирования : VirtualDubMod build 2542/release
    Видео
    Идентификатор : 0
    Формат : MPEG-4 Visual
    Профиль формата : Advanced Simple@L5
    Настройки формата : BVOP2/Custom Matrix
    Параметр BVOP формата : 2
    Параметр QPel формата : Нет
    Параметр GMC формата : Без точки перехода
    Параметр матрицы формата : Выборочная
    Идентификатор кодека : XVID
    Идентификатор кодека/Подсказка : XviD
    Продолжительность : 1 ч. 35 м.
    Битрейт : 1534 Кбит/сек
    Ширина : 720 пикселей
    Высота : 432 пикселя
    Соотношение сторон : 5: 3
    Частота кадров : 24, 000 кадра/сек
    Цветовое пространство : YUV
    Субдискретизация насыщенности : 4: 2: 0
    Битовая глубина : 8 бит
    Тип развёртки : Прогрессивная
    Метод сжатия : С потерями
    Бит/(Пиксели*Кадры) : 0.205
    Размер потока : 1, 02 Гбайт (72%)
    Библиотека кодирования : XviD 73
    Аудио #1
    Идентификатор : 1
    Формат : AC-3
    Формат/Информация : Audio Coding 3
    Идентификатор кодека : 2000
    Продолжительность : 1 ч. 35 м.
    Вид битрейта : Постоянный
    Битрейт : 192 Кбит/сек
    Каналы : 2 канала
    Расположение каналов : Front: L R
    Частота : 48, 0 КГц
    Частота кадров : 31, 250 кадров/сек (1536 SPF)
    Битовая глубина : 16 бит
    Метод сжатия : С потерями
    Размер потока : 131 Мбайт (9%)
    Выравнивание : Разделение по промежуткам
    Продолжительность промежутка : 42 мс. (1, 00 видеокадр)
    Время предзагрузки промежутка : 500 мс.
    ServiceKind/String : Complete Main
    Аудио #2
    Идентификатор : 2
    Формат : AC-3
    Формат/Информация : Audio Coding 3
    Идентификатор кодека : 2000
    Продолжительность : 1 ч. 35 м.
    Вид битрейта : Постоянный
    Битрейт : 384 Кбит/сек
    Каналы : 6 каналов
    Расположение каналов : Front: L C R, Side: L R, LFE
    Частота : 48, 0 КГц
    Частота кадров : 31, 250 кадров/сек (1536 SPF)
    Битовая глубина : 16 бит
    Метод сжатия : С потерями
    Размер потока : 263 Мбайт (18%)
    Выравнивание : Разделение по промежуткам
    Продолжительность промежутка : 42 мс. (1, 00 видеокадр)
    Время предзагрузки промежутка : 500 мс.
    ServiceKind/String : Complete Main

    Скриншоты для ознакомления



    Все одноименные релизы в Клубе
    Время раздачи: большая часть суток (до появления первых 3-5 скачавших)

    Онлайн видео Последствия



    Последствия/Posledice/Consequences (2018) WEB-DLRip [VO]
    Рейтинг →
     (голосов: 1, оценка 5/5, голосовать можно 1 раз )

    Другие торренты по теме:

  • Последствия / Consequence (2003) DVDRip [H.264] скачать через торрент бесплатно
  • Политика. Антироссийские законы на Украине. Причины и последствия (2015.04.22) SATRip скачать через торрент бесплатно
  • Перепутанные наследники / Наследство и последствия / Splitting Heirs (1993) HDTVRip [h264] [AVO] скачать через торрент бесплатно
  • Структура Момента. Атака на Су-24: причины и последствия (24.11.2015) SATRip скачать через торрент бесплатно
  • Фёдор Трофимович Моргун | Сталинско-гитлеровский геноцид украинского народа: факты и последствия (2007) [PDF]
  • Любовь Ковалевская | Чернобыль «ДСП». Последствия Чернобыля (2010) [MP3]
  • Зигмунт Бауман | Глобализация. Последствия для человека и общества (2016) [MP3]
  • Дмитрий Семеник | Освободи себя. Как преодолеть насилие и его последствия. (2016) [MP3]


    • Комментарии (0):

      Информация

      Информация

        Посетители, находящиеся в группе Гости, не могут оставлять комментарии в данной новости.

        ↓ Меню




        ↓ Опрос

        Вы добавили сайт в закладки?
        Да
        Нет


        Популярное