.
Авторизация | Регистрация
bitok.xyz
» » Один дома / Home Alone (1990) HDRip [AVO] торрент скачать бесплатно


    Один дома / Home Alone (1990) HDRip [AVO] торрент скачать бесплатно

    Дата: 30-12-2019, 05:00 | .torrent скачали: 2

    Один дома / Home Alone (1990) HDRip [AVO]Производство: США/Hughes Entertainment, Twentieth Century Fox
    Жанр: комедия, семейный
    Режиссер: Крис Коламбус

    Актеры
    Маколей Калкин, Джо Пеши, Дэниел Стерн, Кэтрин О’Хара, Джон Хёрд, Робертс Блоссом, Джерри Бэммен, Девин Рэтрей, Джон Кэнди, Киран Калкин

    Описание

    Американское семейство отправляется из Чикаго в Европу, но в спешке сборов бестолковые родители забывают дома… одного из своих детей. Юное создание, однако, не теряется и демонстрирует чудеса изобретательности. И когда в дом залезают грабители, им приходится не раз пожалеть о встрече с милым крошкой.

    Возраст: 12+ (зрителям, достигшим 12 лет)
    Рейтинг MPAA: PG (рекомендуется присутствие родителей)
    Продолжительность: 01: 42: 54
    Качество видео: HDRip
    Перевод: Авторский (Алексей Михалёв)
    Субтитры: Отсутствуют
    Видео: XviD, 720x384, 23.976 fps, ~1700 kbps
    Аудио: AC3, 6 ch, 448 kbps - Русский (AVO)
    Общее
    Полное имя : Odin doma 1.1990.avi
    Формат : AVI
    Формат/Информация : Audio Video Interleave
    Размер файла : 1, 55 Гбайт
    Продолжительность : 1 ч. 42 м.
    Общий поток : 2156 Кбит/сек
    Название фильма : Один дома/Home Alone (1990)
    Режиссёр : (BDRip 720)
    Программа кодирования : VirtualDubMod 1.5.10.3 (build 2550/release)
    Библиотека кодирования : VirtualDubMod build 2550/release
    Авторское право : HQ-ViDEO
    Примечание : 11.01.2009
    Видео
    Идентификатор : 0
    Формат : MPEG-4 Visual
    Профиль формата : Advanced Simple@L5
    Настройки формата : BVOP2
    Параметр BVOP формата : 2
    Параметр QPel формата : Нет
    Параметр GMC формата : Без точки перехода
    Параметр матрицы формата : Default (MPEG)
    Режим смешивания : Сжатый битовый поток
    Идентификатор кодека : XVID
    Идентификатор кодека/Подсказка : XviD
    Продолжительность : 1 ч. 42 м.
    Битрейт : 1699 Кбит/сек
    Ширина : 720 пикселей
    Высота : 384 пикселя
    Соотношение сторон : 1, 85: 1
    Соотношение сторон в оригинале : 1, 85: 1
    Частота кадров : 23, 976 (24000/1001) кадра/сек
    Цветовое пространство : YUV
    Субдискретизация насыщенности : 4: 2: 0
    Битовая глубина : 8 бит
    Тип развёртки : Прогрессивная
    Метод сжатия : С потерями
    Бит/(Пиксели*Кадры) : 0.256
    Размер потока : 1, 22 Гбайт (79%)
    Библиотека кодирования : XviD 1.2.1 (UTC 2008-12-04)
    Аудио
    Идентификатор : 1
    Формат : AC-3
    Формат/Информация : Audio Coding 3
    Коммерческое название : Dolby Digital
    Идентификатор кодека : 2000
    Продолжительность : 1 ч. 42 м.
    Вид битрейта : Постоянный
    Битрейт : 448 Кбит/сек
    Каналы : 6 каналов
    ChannelLayout : L R C LFE Ls Rs
    Частота : 48, 0 КГц
    Частота кадров : 31, 250 кадров/сек (1536 SPF)
    Метод сжатия : С потерями
    Размер потока : 330 Мбайт (21%)
    Выравнивание : Разделение по промежуткам
    Продолжительность промежутка : 42 мс. (1, 00 видеокадр)
    Время предзагрузки промежутка : 500 мс.
    ServiceKind/String : Complete Main
    Полная версия в переводе несравненногоАлексея Михайловича Михалёва (1944-1994) .
    На мой взгляд - одна из лучших его работ.
    Скриншоты для ознакомления


    Все одноименные релизы в Клубе
    Время раздачи: 24/7 до появления первых 3-5 скачавших

    Онлайн видео Один дома



    Один дома/Home Alone (1990) HDRip [AVO]
    Рейтинг →
     (голосов: 1, оценка 5/5, голосовать можно 1 раз )

    Другие торренты по теме:

  • Один дома 2: Затерянный в Нью-Йорке / Home alone 2: Lost in New York (1992) BDRemux [H.264 / 1080p]
  • Один дома 2: Затерянный в Нью-Йорке / Home alone 2: Lost in New York (1992) BDRip [H.264 / 1080p]
  • Один дома 2: Затерянный в Нью-Йорке / Home Alone 2: Lost in New York (1992) BDRip [h264] [AVO]
  • Один дома / Home Alone (1990) [H.264 / 1080p] [hand made 60fps] скачать через торрент бесплатно
  • Один дома / Home Alone (1990) BDRip [H.264 / 720p] [Remastered] скачать через торрент бесплатно
  • Один дома 2: Затерянный в Нью-Йорке / Home Alone 2: Lost in New York (1992) BDRip [H.264 / 1080p-LQ] скачать через торрент бесплатно
  • Один дома / Home Alone (1990) BDRip [H.264 / 1080p-LQ] скачать через торрент бесплатно
  • Один дома / Home Alone (1990) HDRip [Remastered]


    • Комментарии (0):

      Информация

      Информация

        Посетители, находящиеся в группе Гости, не могут оставлять комментарии в данной новости.

        ↓ Меню




        ↓ Опрос

        Вы добавили сайт в закладки?
        Да
        Нет


        Популярное