.
Авторизация | Регистрация
bitok.xyz
» » Убийственное безумие / Murder Obsession (1981) DVDRip [H.264] [VO] торрент скачать бесплатно


    Убийственное безумие / Murder Obsession (1981) DVDRip [H.264] [VO] торрент скачать бесплатно

    Дата: 30-12-2019, 05:00 | .torrent скачали: 0

    Убийственное безумие / Murder Obsession (1981) DVDRip [H.264] [VO]Производство: Италия, Франция/Dionysio Cinematografica, Société Nouvelle Cinévog
    Жанр: Ужасы, Детектив
    Режиссер: Риккардо Фреда
    Продюсер: Энцо Боэтани, Саймон Мизрахи

    Актеры
    Стефано Патрици, Мартина Брошар, Анри Гарсен, Лаура Гемсер, Джон Ричардсон, Анита Стриндберг, Сильвия Дионисио, Фабрицио Морони, Кэролин Де Фонсека, Сьюзэн Спэффорд

    Описание

    Съёмочная команда готовит фильм ужасов, рассказывающий о маньяке, который убивает женщин, проводящих свои выходные в загородном доме. Создатели фильма располагаются в доме одного из участников команды и разбиваются на небольшие группы по интересам. А вскоре в доме объявляется самый настоящий убийца.

    Возраст: 18+ (зрителям, достигшим 18 лет. запрещено для детей)
    Релиз от: Охрана (NNMCLUB)
    Продолжительность: 01: 37: 18
    Качество видео: DVDRip
    Перевод: Одноголосый любительский, Horror Maker
    Субтитры: Отсутствуют
    Видео: AVC/H.264, 720x400, ~2045 Kbps
    Аудио 1: AC3, 2 ch, 192 Kbps, 48.0 kHz – Русский
    Аудио 2: AC3, 2 ch, 192 Kbps, 48.0 kHz – Итальянский
    Общее
    Уникальный идентификатор : 195839037379623565550172970105384053597 (0x93553A04E0E04E059270095A7725AB5D)
    Полное имя : B: DownloadsУбийственное безумие. 1981. NNMCLUB.mkv
    Формат : Matroska
    Версия формата : Version 4/Version 2
    Размер файла : 1, 65 Гбайт
    Продолжительность : 1 ч. 37 м.
    Общий поток : 2431 Кбит/сек
    Дата кодирования : UTC 2019-12-29 10: 07: 23
    Программа кодирования : mkvmerge v7.9.0 (\'Birds\') 64bit
    Библиотека кодирования : libebml v1.3.1 + libmatroska v1.4.2
    Видео
    Идентификатор : 1
    Формат : AVC
    Формат/Информация : Advanced Video Codec
    Профиль формата : High@L4.1
    Настройки формата : CABAC/12 Ref Frames
    Параметр CABAC формата : Да
    Параметр RefFrames формата : 12 кадров
    Идентификатор кодека : V_MPEG4/ISO/AVC
    Продолжительность : 1 ч. 37 м.
    Битрейт : 2045 Кбит/сек
    Ширина : 720 пикселей
    Высота : 400 пикселей
    Соотношение сторон : 16: 9
    Режим частоты кадров : Постоянный
    Частота кадров : 25, 000 кадров/сек
    Цветовое пространство : YUV
    Субдискретизация насыщенности : 4: 2: 0
    Битовая глубина : 8 бит
    Тип развёртки : Прогрессивная
    Бит/(Пиксели*Кадры) : 0.284
    Размер потока : 1, 39 Гбайт (84%)
    Заголовок : Murder Obsession
    Библиотека кодирования : x264 core 146 r2538 121396c
    Настройки программы : cabac=1/ref=12/deblock=1: -1: -1/analyse=0x3: 0x113/me=umh/subme=10/psy=1/psy_rd=1.00: 0.10/mixed_ref=1/me_range=32/chroma_me=1/trellis=2/8x8dct=1/cqm=0/deadzone=21, 11/fast_pskip=0/chroma_qp_offset=-3/threads=6/lookahead_threads=1/sliced_threads=0/nr=0/decimate=0/interlaced=0/bluray_compat=0/constrained_intra=0/bframes=7/b_pyramid=2/b_adapt=2/b_bias=0/direct=3/weightb=1/open_gop=0/weightp=2/keyint=250/keyint_min=25/scenecut=40/intra_refresh=0/rc_lookahead=60/rc=2pass/mbtree=1/bitrate=2045/ratetol=1.0/qcomp=0.60/qpmin=0/qpmax=69/qpstep=4/cplxblur=20.0/qblur=0.5/vbv_maxrate=14000/vbv_bufsize=14000/nal_hrd=none/filler=0/ip_ratio=1.40/aq=1: 1.00
    Язык : English
    Default : Да
    Forced : Нет
    Аудио #1
    Идентификатор : 2
    Формат : AC-3
    Формат/Информация : Audio Coding 3
    Идентификатор кодека : A_AC3
    Продолжительность : 1 ч. 37 м.
    Вид битрейта : Постоянный
    Битрейт : 192 Кбит/сек
    Каналы : 2 канала
    Расположение каналов : Front: L R
    Частота : 48, 0 КГц
    Частота кадров : 31, 250 кадров/сек (1536 SPF)
    Битовая глубина : 16 бит
    Метод сжатия : С потерями
    Размер потока : 134 Мбайт (8%)
    Заголовок : Одноголосый закадровый, Horror Maker
    Язык : Russian
    ServiceKind/String : Complete Main
    Default : Да
    Forced : Нет
    Аудио #2
    Идентификатор : 3
    Формат : AC-3
    Формат/Информация : Audio Coding 3
    Идентификатор кодека : A_AC3
    Продолжительность : 1 ч. 37 м.
    Вид битрейта : Постоянный
    Битрейт : 192 Кбит/сек
    Каналы : 2 канала
    Расположение каналов : Front: L R
    Частота : 48, 0 КГц
    Частота кадров : 31, 250 кадров/сек (1536 SPF)
    Битовая глубина : 16 бит
    Метод сжатия : С потерями
    Размер потока : 134 Мбайт (8%)
    Заголовок : Итальянский
    Язык : Italian
    ServiceKind/String : Complete Main
    Default : Нет
    Forced : Нет

    Скриншоты для ознакомления




    Все одноименные релизы в Клубе
    Время раздачи: с 13: 00 до 01: 00 МСК, выходные круглосуточно (до появления первых 3-5 скачавших)

    Онлайн видео Убийственное безумие



    Убийственное безумие/Murder Obsession (1981) DVDRip [H.264] [VO]
    Рейтинг →
     (голосов: 1, оценка 4/5, голосовать можно 1 раз )

    Другие торренты по теме:

  • Убийственное лето / Lete meurtrier (1983) DVDRip скачать через торрент бесплатно
  • Железная девушка: Убийственное оружие / Iron Girl: Ultimate Weapon (2015) HDRip скачать через торрент бесплатно
  • Себастьян Жапризо | Убийственное лето (2014) [MP3]
  • NGW: Дикая природа Аргентины. Убийственное побережье / Wild Argentina. The Killer Coast (2017) HDTV [H.264 / 1080i-LQ]
  • Убийственное тело / Killer Body (The Wrong Patient) (2018) HDTVRip [MVO] [AD]


    • Комментарии (0):

      Информация

      Информация

        Посетители, находящиеся в группе Гости, не могут оставлять комментарии в данной новости.

        ↓ Меню




        ↓ Опрос

        Вы добавили сайт в закладки?
        Да
        Нет


        Популярное