.
Авторизация | Регистрация
bitok.xyz
» » Захар Беркут / The Rising Hawk (2019) WEBRip [H.264 / 1080p-LQ] [UKR] [Line] торрент скачать бесплатно


    Захар Беркут / The Rising Hawk (2019) WEBRip [H.264 / 1080p-LQ] [UKR] [Line] торрент скачать бесплатно

    Дата: 30-12-2019, 05:00 | .torrent скачали: 3

    Захар Беркут / The Rising Hawk (2019) WEBRip [H.264 / 1080p-LQ] [UKR] [Line]Производство: Украина, США/Cinemaday, Kinorob
    Жанр: боевик, драма, история
    Режиссер: Ахтем Сейтаблаев, Джон Винн
    Продюсер: Раджа Коллинз, Yuriy Karnovsky, Джефф Райс

    Актеры
    Элисон Дуди, Томми Флэнаган, Роберт Патрик, Поппи Дрейтон, Алекс МакНиколл, Роки Майерс, Oliver Trevena, Алина Коваленко, Олег Волощенко, Виктор Жданов

    Описание

    1241 год. Монгольская орда во главе с ханом Бурундой движется на запад, истребляя все на своём пути и захватывая пленных. Дойдя до высоких Карпатских гор, войско останавливается у подножия. Ночью несколько местных охотников, братья Беркуты, тайком пробираются в лагерь и освобождают пленных. Узнав об этом, Бурунда приходит в ярость и решает отомстить, уничтожив местные поселения. Для этого он находит предателя среди местных, который открывает ему тайный проход в горах. Однако у горских охотников под предводительством Захара Беркута есть свой план, как раз и навсегда остановить врага

    Дата мировой премьеры: 10 октября 2019
    Продолжительность: 02: 16: 08
    Качество видео: WEBRip
    Перевод : Отсутствует
    Язык озвучки : Украинский
    Субтитры: Отсутствуют
    Видео: AVC/H.264, 1920x1080, 4398 Kbps
    Аудио: AC3, 2 ch, 192 Kbps | Украинский (Дублированный, Line)Общее
    Уникальный идентификатор : 223423528508636550360419913477453588418 (0xA815CE6F26E4D2D0982B5FA7486527C2)
    Полное имя : Zahar.Berkut.(2019).WEBRip.1080p.mkv
    Формат : Matroska
    Версия формата : Version 4
    Размер файла : 4, 37 Гбайт
    Продолжительность : 2 ч. 16 м.
    Режим общего битрейта : Переменный
    Общий поток : 4592 Кбит/сек
    Дата кодирования : UTC 2019-12-28 22: 03: 49
    Программа кодирования : mkvmerge v8.3.0 (\'Over the Horizon\') 64bit
    Библиотека кодирования : libebml v1.3.1 + libmatroska v1.4.2
    Видео
    Идентификатор : 1
    Формат : AVC
    Формат/Информация : Advanced Video Codec
    Профиль формата : Main@L4
    Настройки формата : CABAC/1 Ref Frames
    Параметр CABAC формата : Да
    Параметр RefFrames формата : 1 кадр
    Идентификатор кодека : V_MPEG4/ISO/AVC
    Продолжительность : 2 ч. 16 м.
    Вид битрейта : Переменный
    Битрейт : 4398 Кбит/сек
    Максимальный битрейт : 13, 5 Мбит/сек
    Ширина : 1920 пикселей
    Высота : 1080 пикселей
    Соотношение сторон : 16: 9
    Режим частоты кадров : Постоянный
    Частота кадров : 24, 000 кадра/сек
    Цветовое пространство : YUV
    Субдискретизация насыщенности : 4: 2: 0
    Битовая глубина : 8 бит
    Тип развёртки : Прогрессивная
    Бит/(Пиксели*Кадры) : 0.088
    Размер потока : 4, 18 Гбайт (96%)
    Default : Да
    Forced : Нет
    Аудио
    Идентификатор : 2
    Формат : AC-3
    Формат/Информация : Audio Coding 3
    Коммерческое название : Dolby Digital
    Идентификатор кодека : A_AC3
    Продолжительность : 2 ч. 16 м.
    Вид битрейта : Постоянный
    Битрейт : 192 Кбит/сек
    Каналы : 2 канала
    Channel layout : L R
    Частота : 48, 0 КГц
    Частота кадров : 31, 250 кадров/сек (1536 SPF)
    Битовая глубина : 16 бит
    Метод сжатия : С потерями
    Размер потока : 187 Мбайт (4%)
    Язык : Ukrainian
    ServiceKind/String : Complete Main
    Default : Да
    Forced : Нет
    Скриншоты для ознакомления



    Все одноименные релизы в Клубе
    Время раздачи: 24/7 (до появления первых 3-5 скачавших)

    Онлайн видео Захар Беркут



    Захар Беркут/The Rising Hawk (2019) WEBRip [H.264/1080p-LQ] [UKR] [Line]
    Рейтинг →
     (голосов: 1, оценка 4/5, голосовать можно 1 раз )

    Другие торренты по теме:

  • Захар Беркут (1972) SATRip
  • Захар Беркут / The Rising Hawk (2019) WEBRip [UKR] [Line]
  • Захар Беркут / The Rising Hawk (2019) WEBRip [H.264] [UKR] [Line]


    • Комментарии (0):

      Информация

      Информация

        Посетители, находящиеся в группе Гости, не могут оставлять комментарии в данной новости.

        ↓ Меню




        ↓ Опрос

        Вы добавили сайт в закладки?
        Да
        Нет


        Популярное