.
Авторизация | Регистрация
bitok.xyz
» » Захар Беркут / The Rising Hawk (2019) WEBRip [UKR] [Line] торрент скачать бесплатно


    Захар Беркут / The Rising Hawk (2019) WEBRip [UKR] [Line] торрент скачать бесплатно

    Дата: 30-12-2019, 05:00 | .torrent скачали: 3

    Захар Беркут / The Rising Hawk (2019) WEBRip [UKR] [Line]Производство: Украина, США/Cinemaday, Kinorob
    Жанр: боевик, драма, история
    Режиссер: Ахтем Сейтаблаев, Джон Винн
    Продюсер: Раджа Коллинз, Yuriy Karnovsky, Джефф Райс

    Актеры
    Элисон Дуди, Томми Флэнаган, Роберт Патрик, Поппи Дрейтон, Алекс МакНиколл, Роки Майерс, Oliver Trevena, Алина Коваленко, Олег Волощенко, Виктор Жданов

    Описание

    1241 год. Монгольская орда во главе с ханом Бурундой движется на запад, истребляя все на своём пути и захватывая пленных. Дойдя до высоких Карпатских гор, войско останавливается у подножия. Ночью несколько местных охотников, братья Беркуты, тайком пробираются в лагерь и освобождают пленных. Узнав об этом, Бурунда приходит в ярость и решает отомстить, уничтожив местные поселения. Для этого он находит предателя среди местных, который открывает ему тайный проход в горах. Однако у горских охотников под предводительством Захара Беркута есть свой план, как раз и навсегда остановить врага

    Дата мировой премьеры: 10 октября 2019
    Продолжительность: 02: 16: 08
    Качество видео: WEBRip
    Перевод : Отсутствует
    Язык озвучки : Украинский
    Субтитры: Отсутствуют
    Видео: Xvid, 720x304, 1334 kbps
    Аудио: AC3, 2 ch, 192 Kbps | Украинский (Дублированный, Line)Общее
    Полное имя : Zahar.Berkut.(2019).WEBRip.avi
    Формат : AVI
    Формат/Информация : Audio Video Interleave
    Размер файла : 1, 46 Гбайт
    Продолжительность : 2 ч. 16 м.
    Общий поток : 1535 Кбит/сек
    Библиотека кодирования : VirtualDub build 35491/release
    Видео
    Идентификатор : 0
    Формат : MPEG-4 Visual
    Профиль формата : Advanced Simple@L5
    Настройки формата : BVOP2
    Параметр BVOP формата : 2
    Параметр QPel формата : Нет
    Параметр GMC формата : Без точки перехода
    Параметр матрицы формата : Default (MPEG)
    Режим смешивания : Сжатый битовый поток
    Идентификатор кодека : XVID
    Идентификатор кодека/Подсказка : XviD
    Продолжительность : 2 ч. 16 м.
    Битрейт : 1334 Кбит/сек
    Ширина : 720 пикселей
    Высота : 304 пикселя
    Соотношение сторон : 2, 35: 1
    Частота кадров : 24, 000 кадра/сек
    Цветовое пространство : YUV
    Субдискретизация насыщенности : 4: 2: 0
    Битовая глубина : 8 бит
    Тип развёртки : Прогрессивная
    Метод сжатия : С потерями
    Бит/(Пиксели*Кадры) : 0.254
    Размер потока : 1, 27 Гбайт (87%)
    Библиотека кодирования : XviD 64
    Аудио
    Идентификатор : 1
    Формат : AC-3
    Формат/Информация : Audio Coding 3
    Коммерческое название : Dolby Digital
    Идентификатор кодека : 2000
    Продолжительность : 2 ч. 16 м.
    Вид битрейта : Постоянный
    Битрейт : 192 Кбит/сек
    Каналы : 2 канала
    Channel layout : L R
    Частота : 48, 0 КГц
    Частота кадров : 31, 250 кадров/сек (1536 SPF)
    Битовая глубина : 16 бит
    Метод сжатия : С потерями
    Размер потока : 187 Мбайт (13%)
    Выравнивание : Соединение по промежуткам
    Продолжительность промежутка : 42 мс. (1, 00 видеокадр)
    Время предзагрузки промежутка : 512 мс.
    ServiceKind/String : Complete Main
    Скриншоты для ознакомления



    Все одноименные релизы в Клубе
    Время раздачи: 24/7 (до появления первых 3-5 скачавших)

    Онлайн видео Захар Беркут



    Захар Беркут/The Rising Hawk (2019) WEBRip [UKR] [Line]
    Рейтинг →
     (голосов: 1, оценка 3/5, голосовать можно 1 раз )

    Другие торренты по теме:

  • Захар Беркут (1972) SATRip
  • Захар Беркут / The Rising Hawk (2019) WEBRip [H.264 / 1080p-LQ] [UKR] [Line]
  • Захар Беркут / The Rising Hawk (2019) WEBRip [H.264] [UKR] [Line]


    • Комментарии (0):

      Информация

      Информация

        Посетители, находящиеся в группе Гости, не могут оставлять комментарии в данной новости.

        ↓ Меню




        ↓ Опрос

        Вы добавили сайт в закладки?
        Да
        Нет


        Популярное