.
Авторизация | Регистрация
bitok.xyz
» » Пассажир дождя / Le passager de la pluie (1970) BDRip [H.264] торрент скачать бесплатно


    Пассажир дождя / Le passager de la pluie (1970) BDRip [H.264] торрент скачать бесплатно

    Дата: 30-12-2019, 05:00 | .torrent скачали: 0

    Пассажир дождя / Le passager de la pluie (1970) BDRip [H.264]Производство: Франция, Италия/Greenwich Film Productions, Medusa Distribuzione
    Жанр: триллер, драма, криминал, детектив
    Режиссер: Рене Клеман

    Актеры
    Чарльз Бронсон, Марлен Жобер, Габриэле Тинти, Жан Гавен, Жан Пиа, Джилл Айрленд, Коринн Маршан, Анни Корди, Эллен Баль, Стив Экхардт

    Описание

    Молодая женщина убивает насильника и сбрасывает его труп в море. Вскоре появляется таинственный американец, который начинает с ней игру в кошки-мышки, добиваясь признания в совершенном убийстве.

    Возраст: 16+ (зрителям, достигшим 16 лет)
    Рейтинг MPAA: G (нет возрастных ограничений)
    Продолжительность: 01: 59: 37
    Качество видео: BDRip
    Перевод: Двуголосый профессиональный
    Субтитры: Русские
    Видео: AVC/H.264, 1024x552, ~2315 kbps
    Аудио#1: AC3, 2 ch, 192 kbps | Русский (DVO)
    Аудио#2: AC3, 2 ch, 192 kbps | Французский – оригинал
    Общее
    Уникальный идентификатор : 214507977178152126819296658925721679946 (0xA160BBD0DCB6C1D4B1731079DEC2F84A)
    Полное имя : F: Чарльз БронсонПассажир дождяПассажир дождя. 1970.mkv
    Формат : Matroska
    Версия формата : Version 4/Version 2
    Размер файла : 2, 26 Гбайт
    Продолжительность : 1 ч. 59 м.
    Общий поток : 2701 Кбит/сек
    Название фильма : Release for Topmost
    Дата кодирования : UTC 2019-12-28 18: 44: 06
    Программа кодирования : mkvmerge v6.2.0 (\'Promised Land\') built on Apr 28 2013 12: 22: 01
    Библиотека кодирования : libebml v1.3.0 + libmatroska v1.4.0
    Attachment : Yes
    Видео
    Идентификатор : 1
    Формат : AVC
    Формат/Информация : Advanced Video Codec
    Профиль формата : High@L4.1
    Параметр CABAC формата : Да
    Параметр ReFrames формата : 12 кадров
    Идентификатор кодека : V_MPEG4/ISO/AVC
    Продолжительность : 1 ч. 59 м.
    Битрейт : 2315 Кбит/сек
    Ширина : 1024 пикселя
    Высота : 552 пикселя
    Соотношение сторон : 1, 85: 1
    Режим частоты кадров : Постоянный
    Частота кадров : 23, 976 кадра/сек
    Цветовое пространство : YUV
    Субдискретизация насыщенности : 4: 2: 0
    Битовая глубина : 8 бит
    Тип развёртки : Прогрессивная
    Бит/(Пиксели*Кадры) : 0.171
    Размер потока : 1, 89 Гбайт (84%)
    Заголовок : Пассажир дождя. 1970 /Release for Topmost/
    Библиотека кодирования : x264 core 146 r2538 121396c
    Настройки программы : cabac=1/ref=12/deblock=1: -3: -3/analyse=0x3: 0x113/me=umh/subme=11/psy=1/psy_rd=1.00: 0.15/mixed_ref=1/me_range=32/chroma_me=1/trellis=2/8x8dct=1/cqm=0/deadzone=21, 11/fast_pskip=0/chroma_qp_offset=-3/threads=12/lookahead_threads=2/sliced_threads=0/nr=0/decimate=0/interlaced=0/bluray_compat=0/constrained_intra=0/bframes=8/b_pyramid=2/b_adapt=2/b_bias=0/direct=1/weightb=1/open_gop=0/weightp=2/keyint=240/keyint_min=23/scenecut=40/intra_refresh=0/rc_lookahead=40/rc=2pass/mbtree=0/bitrate=2315/ratetol=1.0/qcomp=0.60/qpmin=0/qpmax=69/qpstep=4/cplxblur=20.0/qblur=0.5/vbv_maxrate=14000/vbv_bufsize=14000/nal_hrd=none/filler=0/ip_ratio=1.40/pb_ratio=1.30/aq=1: 0.90
    Язык : French
    Default : Да
    Forced : Нет
    Аудио #1
    Идентификатор : 2
    Формат : AC-3
    Формат/Информация : Audio Coding 3
    Расширение режима : CM (complete main)
    Параметр Endianness формата : Big
    Идентификатор кодека : A_AC3
    Продолжительность : 1 ч. 59 м.
    Вид битрейта : Постоянный
    Битрейт : 192 Кбит/сек
    Каналы : 2 канала
    Расположение каналов : Front: L R
    Частота : 48, 0 КГц
    Битовая глубина : 16 бит
    Метод сжатия : С потерями
    Размер потока : 164 Мбайт (7%)
    Заголовок : DVO
    Язык : Russian
    Default : Да
    Forced : Нет
    Аудио #2
    Идентификатор : 3
    Формат : AC-3
    Формат/Информация : Audio Coding 3
    Расширение режима : CM (complete main)
    Параметр Endianness формата : Big
    Идентификатор кодека : A_AC3
    Продолжительность : 1 ч. 59 м.
    Вид битрейта : Постоянный
    Битрейт : 192 Кбит/сек
    Каналы : 2 канала
    Расположение каналов : Front: L R
    Частота : 48, 0 КГц
    Битовая глубина : 16 бит
    Метод сжатия : С потерями
    Размер потока : 164 Мбайт (7%)
    Язык : French
    Default : Нет
    Forced : Нет
    Текст
    Идентификатор : 4
    Формат : UTF-8
    Идентификатор кодека : S_TEXT/UTF8
    Идентификатор кодека/Информация : UTF-8 Plain Text
    Язык : Russian
    Default : Да
    Forced : Нет

    Скриншоты для ознакомления



    Все одноименные релизы в Клубе
    Время раздачи: 24/7 до 5 скачавших

    Онлайн видео Пассажир дождя



    Пассажир дождя/Le passager de la pluie (1970) BDRip [H.264]
    Рейтинг →
     (голосов: 1, оценка 3/5, голосовать можно 1 раз )

    Другие торренты по теме:

  • Пассажир дождя / Le passager de la pluie (1969) DVDRip [H.264]
  • Пассажир дождя / Le passager de la pluie (1969) BDRemux [H.264 / 1080p] [French Version]


    • Комментарии (0):

      Информация

      Информация

        Посетители, находящиеся в группе Гости, не могут оставлять комментарии в данной новости.

        ↓ Меню




        ↓ Опрос

        Вы добавили сайт в закладки?
        Да
        Нет


        Популярное