.
Авторизация | Регистрация
bitok.xyz
» » Тайный знак (2001-2004) SATRip [H.264] (сезон 1-3, серии 1-24 из 24) торрент скачать бесплатно


    Тайный знак (2001-2004) SATRip [H.264] (сезон 1-3, серии 1-24 из 24) торрент скачать бесплатно

    Дата: 30-12-2019, 05:00 | .torrent скачали: 0

    Тайный знак (2001-2004) SATRip [H.264] (сезон 1-3, серии 1-24 из 24)Производство: Россия/Кинопрограмма XXI Век, Компания Киноглаз
    Жанр: детектив, драма, триллер
    Режиссер: Борис Дуров, Нурбек Эген, Борис Григорьев

    Актеры
    Владимир Стеклов, Алиса Гребенщикова, Александр Песков, Александр Белявский, Юрий Мосейчук, Артур Смольянинов, Марина Яковлева, Елизавета Олиферова, Александр Пороховщиков, Вячеслав Гришечкин, Владимир Епифанцев и др.

    Описание

    В небольшом городке, где происходят события фильма, пропадают девочки-школьницы. Ходят слухи о маньяке-одиночке, о наркодельцах, но все гораздо сложнее, и молодые люди оказываются вовлеченными в секту.

    Возраст: 12+ (зрителям, достигшим 12 лет)
    Продолжительность: ~00: 50: 00 серия
    Качество видео: SATRip
    Видео: AVC/H.264, 720x528 (4: 3), ~1650 Kbps
    Аудио: AC3, 2 ch, 192 Kbps
    Общее
    Уникальный идентификатор : 75620525205090802296139401763768234472 (0x38E3FBBF7718ADB7C97BA2650157F1E8)
    Полное имя : F: Тайный знак.01-03 (2001-2004)Тайный знак 01_серия.mkv
    Формат : Matroska
    Версия формата : Version 4
    Размер файла : 733 Мбайт
    Продолжительность : 55 м. 33 с.
    Общий поток : 1844 Кбит/сек
    Программа кодирования : Lavf58.20.100
    Библиотека кодирования : Lavf58.20.100
    ErrorDetectionType : Per level 1
    Видео
    Идентификатор : 1
    Формат : AVC
    Формат/Информация : Advanced Video Codec
    Профиль формата : High@L4.1
    Настройки формата : CABAC/9 Ref Frames
    Параметр CABAC формата : Да
    Параметр RefFrames формата : 9 кадров
    Идентификатор кодека : V_MPEG4/ISO/AVC
    Продолжительность : 55 м. 33 с.
    Битрейт : 1650 Кбит/сек
    Ширина : 720 пикселей
    Высота : 528 пикселей
    Соотношение сторон : 4: 3
    Режим частоты кадров : Постоянный
    Частота кадров : 25, 000 кадров/сек
    Цветовое пространство : YUV
    Субдискретизация насыщенности : 4: 2: 0
    Битовая глубина : 8 бит
    Тип развёртки : Прогрессивная
    Бит/(Пиксели*Кадры) : 0.174
    Размер потока : 642 Мбайт (88%)
    Библиотека кодирования : x264 core 125 r2200 999b753
    Настройки программы : cabac=1/ref=9/deblock=1: -3: -3/analyse=0x3: 0x133/me=umh/subme=9/psy=1/psy_rd=1.10: 0.15/mixed_ref=1/me_range=32/chroma_me=1/trellis=2/8x8dct=1/cqm=0/deadzone=21, 11/fast_pskip=0/chroma_qp_offset=-3/threads=3/lookahead_threads=1/sliced_threads=0/nr=0/decimate=1/interlaced=0/bluray_compat=0/constrained_intra=0/bframes=9/b_pyramid=2/b_adapt=2/b_bias=0/direct=3/weightb=1/open_gop=0/weightp=2/keyint=250/keyint_min=25/scenecut=40/intra_refresh=0/rc=2pass/mbtree=0/bitrate=1650/ratetol=1.0/qcomp=0.60/qpmin=0/qpmax=69/qpstep=4/cplxblur=20.0/qblur=0.5/ip_ratio=1.40/pb_ratio=1.30/aq=2: 0.90
    Default : Да
    Forced : Нет
    Цветовой диапазон : Limited
    Основные цвета : BT.601 PAL
    Характеристики трансфера : BT.470 System B/G
    Коэффициенты матрицы : BT.470 System B/G
    Аудио
    Идентификатор : 2
    Формат : AC-3
    Формат/Информация : Audio Coding 3
    Коммерческое название : Dolby Digital
    Идентификатор кодека : A_AC3
    Продолжительность : 55 м. 33 с.
    Вид битрейта : Постоянный
    Битрейт : 192 Кбит/сек
    Каналы : 2 канала
    ChannelLayout : L R
    Частота : 48, 0 КГц
    Частота кадров : 31, 250 кадров/сек (1536 SPF)
    Метод сжатия : С потерями
    Задержка видео : -80 мс.
    Размер потока : 76, 3 Мбайт (10%)
    ServiceKind/String : Complete Main
    Default : Да
    Forced : Нет


    Онлайн видео Тайный знак (2001



    Тайный знак (2001-2004) SATRip [H.264] (сезон 1-3, серии 1-24 из 24)
    Рейтинг →
     (голосов: 1, оценка 5/5, голосовать можно 1 раз )

    Другие торренты по теме:

  • Тайный город 2 (2014) SATRip [2 сезон: 1-2 серия из 8](Обновляемая)
  • Загадки цивилизации. Русская версия. Фильм 4. Тайный код амурских ликов (2014.11.12) SATRip скачать через торрент бесплатно
  • Nat Geo Wild.Тайный сад / Secret Garden (2014) HDTVRip [H.264 / 720p] скачать через торрент бесплатно
  • Бель де Жур | Тайный дневник девушки по вызову. Часть 2. Любовь и профессия (2015) [M4B|AAC] скачать через торрент бесплатно
  • Бель де Жур | Тайный дневник девушки по вызову (2012) [M4B|AAC] скачать через торрент бесплатно
  • Тайный побег / Elopement (2010) HDTVRip скачать через торрент бесплатно
  • Бешеный пес. Тайный мир Муаммара Каддафи / Mad Dog: Inside the Secret World of Muammar Gaddafi (2014) DVB [H.264] скачать через торрент бесплатно
  • Геннадий Прашкевич | Тайный брат [сборник] (2015) [FB2] скачать через торрент бесплатно


    • Комментарии (0):

      Информация

      Информация

        Посетители, находящиеся в группе Гости, не могут оставлять комментарии в данной новости.

        ↓ Меню




        ↓ Опрос

        Вы добавили сайт в закладки?
        Да
        Нет


        Популярное