.
Авторизация | Регистрация
bitok.xyz
» » Комната старинных ключей (2019) WEB-DL [H.264 / 1080p-LQ] (сезон 1, серии 1-4 из 4) торрент скачать бесплатно


    Комната старинных ключей (2019) WEB-DL [H.264 / 1080p-LQ] (сезон 1, серии 1-4 из 4) торрент скачать бесплатно

    Дата: 30-12-2019, 05:00 | .torrent скачали: 0

    Комната старинных ключей (2019) WEB-DL [H.264 / 1080p-LQ] (сезон 1, серии 1-4 из 4)Производство: Россия/Грин-Фильм, ТелеМастер
    Жанр: детектив, экранизация
    Режиссер: Антон Павлючик

    Актеры
    Евгений Пронин, Алексей Вакулов, Светлана Смирнова-Кацагаджиева, Анна Христич, Владимир Колганов, Филипп Азаров, Елена Купрашевич, Варвара Гусинская, Кирилл Балобан, Павел Григорьев и др.

    Описание

    Цикл Приключения Бабкина и Илюшина по романам Елены Михалковой.
    В подмосковном поселке, в роскошном особняке, живет известный в узких кругах психолог Анжей Ковальский. У него необычный метод: он собирает по всему миру старинные ключи, а потом, выслушав конкретного пациента, подбирает для него ключ из своей коллекции, после чего вдохновленный обладатель ключа сам находит выход из трудного положения...

    Дата российской премьеры: 21 декабря 2019
    Продолжительность: ~00: 46: 00 серия
    Качество видео: WEB-DL
    Видео: AVC/H.264, 1920x1080 (16: 9), ~4850 Kbps
    Аудио: AC3, 2 ch, 192 Kbps
    Общее
    Уникальный идентификатор : 261695876430130080528950844254384515084 (0xC4E0CADF928C6FF404121C31058F680C)
    Полное имя : D: Комната старинных ключей (2019)Комната старинных ключей. Серия 1.mkv
    Формат : Matroska
    Версия формата : Version 4
    Размер файла : 1, 73 Гбайт
    Продолжительность : 48 м. 13 с.
    Общий поток : 5142 Кбит/сек
    Программа кодирования : Lavf57.71.100
    Библиотека кодирования : Lavf57.71.100
    ErrorDetectionType : Per level 1
    Видео
    Идентификатор : 1
    Формат : AVC
    Формат/Информация : Advanced Video Codec
    Профиль формата : High@L4
    Настройки формата : CABAC/1 Ref Frames
    Параметр CABAC формата : Да
    Параметр RefFrames формата : 1 кадр
    Параметр GOP формата : M=1, N=50
    Идентификатор кодека : V_MPEG4/ISO/AVC
    Продолжительность : 48 м. 13 с.
    Битрейт : 4848 Кбит/сек
    Ширина : 1920 пикселей
    Высота : 1080 пикселей
    Соотношение сторон : 16: 9
    Режим частоты кадров : Постоянный
    Частота кадров : 30, 000 кадров/сек
    Цветовое пространство : YUV
    Субдискретизация насыщенности : 4: 2: 0
    Битовая глубина : 8 бит
    Тип развёртки : Прогрессивная
    Бит/(Пиксели*Кадры) : 0.078
    Размер потока : 1, 63 Гбайт (94%)
    Default : Да
    Forced : Нет
    Аудио
    Идентификатор : 2
    Формат : AC-3
    Формат/Информация : Audio Coding 3
    Коммерческое название : Dolby Digital
    Идентификатор кодека : A_AC3
    Продолжительность : 48 м. 13 с.
    Вид битрейта : Постоянный
    Битрейт : 192 Кбит/сек
    Каналы : 2 канала
    ChannelLayout : L R
    Частота : 48, 0 КГц
    Частота кадров : 31, 250 кадров/сек (1536 SPF)
    Битовая глубина : 32 бит
    Метод сжатия : С потерями
    Размер потока : 66, 2 Мбайт (4%)
    ServiceKind/String : Complete Main
    Default : Да
    Forced : Нет

    Скриншоты для ознакомления



    Все одноименные релизы в Клубе
    Время раздачи: 24/7 (круглосуточно) (до появления первых 3-5 скачавших)

    Онлайн видео Комната старинных ключей (2019) WEB-DL [H.264



    Комната старинных ключей (2019) WEB-DL [H.264/1080p-LQ] (сезон 1, серии 1-4 из 4)
    Рейтинг →
     (голосов: 1, оценка 5/5, голосовать можно 1 раз )

    Другие торренты по теме:

  • Комната старинных ключей (2019) SATRip [H.264] (сезон 1, серии 1-4 из 4)


    • Комментарии (0):

      Информация

      Информация

        Посетители, находящиеся в группе Гости, не могут оставлять комментарии в данной новости.

        ↓ Меню




        ↓ Опрос

        Вы добавили сайт в закладки?
        Да
        Нет


        Популярное

        Полицейский с Рублёвки. Новогодний беспредел 2 (2019) CamRip [AD]

        (скачиваний: 2276)
        Властелин колец: Трилогия / The Lord of the Rings: Trilogy (2001,2002,2003) BDRip [H.264] [Extended Editions] скачать через торрент бесплатно

        (скачиваний: 672)
        Властелин колец / The Lord of the Rings (2001,2002,2003) BDRip [Extended Edition] [H.264 / 1080p-LQ] [Hi10P]

        (скачиваний: 661)
        Начало / Inception (2010) BDRip [H.265 / 1080p]

        (скачиваний: 642)
        Властелин колец / The Lord of the Rings (2001,2002,2003) BDRip [1080p] [Extended Edition] [Трилогия]

        (скачиваний: 608)
        Квартирник НТВ у Маргулиса. Новогодний выпуск (31.12.2019) WEB-DL [H.264 / 1080p-LQ]

        (скачиваний: 456)
        Каникулы off-line (2018) WEBRip

        (скачиваний: 438)
        Хоббит: Трилогия / The Hobbit: Trilogy (2012, 2013, 2014) BDRip [H.265 / 1080p-LQ] [10-bit] [Расширенная версия]

        (скачиваний: 398)
        Властелин колец / The Lord of the Rings (2001,2002,2003) BDRip [1080p] [Extended Edition] [Трилогия] скачать через торрент бесплатно

        (скачиваний: 277)
        Во все тяжкие / Breaking Bad (2008-2013) BDRip [H.264 / 1080p] (сезон 1-5, серии 1-62 из 62) Кубик в Кубе, LostFilm скачать через торрент бесплатно

        (скачиваний: 256)