.
Авторизация | Регистрация
bitok.xyz
» » Эдуард Суровый. Слезы Брайтона (2019) HDTVRip [H.264 / 720p-LQ] торрент скачать бесплатно


    Эдуард Суровый. Слезы Брайтона (2019) HDTVRip [H.264 / 720p-LQ] торрент скачать бесплатно

    Дата: 31-12-2019, 05:00 | .torrent скачали: 3

    Эдуард Суровый. Слезы Брайтона (2019) HDTVRip [H.264 / 720p-LQ]Производство: Россия/ТНТ
    Жанр: Комедия
    Режиссер: Роман Новиков

    Актеры
    Гарик Харламов, Иван Ургант, Филипп Киркоров, Тимати, Дэниэл Хорват, Олег Алмазов, Вера Тарасова, Ольга Кожевникова, Григорий Лепс, Лев Лещенко

    Описание

    Слава песенника Эдуарда Сурового пришлась на 70-е годы прошлого века, когда резидента Comedy Club Гарика Харламова, который назвал в его честь своего одиозного юмористического персонажа, не было еще и в проекте. С личного одобрения Леонида Брежнева Эдуарду позволили представлять СССР, закрытый железным занавесом, на знаменитом европейском музыкальном конкурсе.

    Дата мировой премьеры: 30 декабря 2019
    Продолжительность: 01: 09: 00
    Качество видео: HDTVRip
    Перевод: Не требуется (русский)
    Субтитры: Отсутствуют
    Видео: AVC/H.264, 1280x720, ~2924 Kbps
    Аудио: AC-3, 2 ch, 192 Kbps
    Общее
    Уникальный идентификатор : 187179298613232749143955107727981311482 (0x8CD16BEF152BF2F3BA12483FDB8A75FA)
    Полное имя : D: NNMЭдуард СуровыйEduard.Surovyj.Slezy.Brajtona.2019.HDTVRip.720p-LQ.mkv
    Формат : Matroska
    Версия формата : Version 2
    Размер файла : 1, 53 Гбайт
    Продолжительность : 1 ч. 9 м.
    Режим общего битрейта : Переменный
    Общий поток : 3180 Кбит/сек
    Дата кодирования : UTC 2019-12-30 20: 37: 33
    Программа кодирования : mkvmerge v5.8.0 (\'No Sleep/Pillow\') built on Sep 2 2012 15: 37: 04
    Библиотека кодирования : libebml v1.2.3 + libmatroska v1.3.0
    Видео
    Идентификатор : 1
    Формат : AVC
    Формат/Информация : Advanced Video Codec
    Профиль формата : High@L3.1
    Настройки формата : CABAC/1 Ref Frames
    Параметр CABAC формата : Да
    Параметр RefFrames формата : 1 кадр
    Параметр GOP формата : M=1, N=50
    Идентификатор кодека : V_MPEG4/ISO/AVC
    Продолжительность : 1 ч. 9 м.
    Вид битрейта : Переменный
    Битрейт : 2924 Кбит/сек
    Максимальный битрейт : 3000 Кбит/сек
    Ширина : 1280 пикселей
    Высота : 720 пикселей
    Соотношение сторон : 16: 9
    Режим частоты кадров : Постоянный
    Частота кадров : 25, 000 кадров/сек
    Цветовое пространство : YUV
    Субдискретизация насыщенности : 4: 2: 0
    Битовая глубина : 8 бит
    Тип развёртки : Прогрессивная
    Бит/(Пиксели*Кадры) : 0.127
    Размер потока : 1, 41 Гбайт (92%)
    Язык : Russian
    Default : Да
    Forced : Нет
    Аудио
    Идентификатор : 2
    Формат : AC-3
    Формат/Информация : Audio Coding 3
    Коммерческое название : Dolby Digital
    Идентификатор кодека : A_AC3
    Продолжительность : 1 ч. 9 м.
    Вид битрейта : Постоянный
    Битрейт : 192 Кбит/сек
    Каналы : 2 канала
    ChannelLayout : L R
    Частота : 48, 0 КГц
    Частота кадров : 31, 250 кадров/сек (1536 SPF)
    Метод сжатия : С потерями
    Размер потока : 94, 8 Мбайт (6%)
    Язык : Russian
    ServiceKind/String : Complete Main
    Default : Да
    Forced : Нет

    Скриншоты для ознакомления



    Все одноименные релизы в Клубе Время раздачи: 24/7 (до появления первых 3-5 скачавших)

    Онлайн видео Эдуард Суровый. Слезы Брайтона (2019) HDTVRip [H.264



    Эдуард Суровый. Слезы Брайтона (2019) HDTVRip [H.264/720p-LQ]
    Рейтинг →
     (голосов: 1, оценка 3/5, голосовать можно 1 раз )

    Другие торренты по теме:

  • Эдуард Суровый - Все песни (2008-2015) [MP3|128-192 кб / с]<Юмор> скачать через торрент бесплатно
  • Эдуард Суровый (Comedy Club) (2014-2016) HDRip [H.264] [MP4|1280x720]
  • Эдуард Суровый. Слезы Брайтона (2019) TVRip
  • Эдуард Суровый. Слезы Брайтона (2019) WEB-DLRip
  • Эдуард Суровый - Слезы Брайтона / Роман Новиков (2019) WEB-DL [H.264 / 1080p]
  • Эдуард Суровый - И поэтому всё так произошло... (2019) [MP3|192 Kbps] <Авторская песня>
  • Эдуард Суровый - И поэтому всё так произошло... (2019) [FLAC|Lossless|WEB-DL|tracks] <Авторская песня, Юмор>


    • Комментарии (0):

      Информация

      Информация

        Посетители, находящиеся в группе Гости, не могут оставлять комментарии в данной новости.

        ↓ Меню




        ↓ Опрос

        Вы добавили сайт в закладки?
        Да
        Нет


        Популярное