.
Авторизация | Регистрация
bitok.xyz
» » Малефисента: Владычица тьмы / Maleficent: Mistress of Evil (2019) WEB-DL [H.264 / 1080p-LQ] торрент скачать бесплатно


    Малефисента: Владычица тьмы / Maleficent: Mistress of Evil (2019) WEB-DL [H.264 / 1080p-LQ] торрент скачать бесплатно

    Дата: 31-12-2019, 05:00 | .torrent скачали: 4

    Малефисента: Владычица тьмы / Maleficent: Mistress of Evil (2019) WEB-DL [H.264 / 1080p-LQ]Производство: США, Великобритания, Невафильм, Roth Films, Walt Disney Pictures
    Жанр: Фэнтези, Приключения, Семейный
    Режиссер: Хоаким Роннинг
    Продюсер: Анджелина Джоли, Брайан Х. Кэрролл, Chris Castald

    Актеры
    Анджелина Джоли, Элль Фэннинг, Харрис Дикинсон, Мишель Пфайффер, Сэм Райли, Чиветел Эджиофор, Эд Скрейн, Роберт Линдсей, Дэвид Гяси, Дженн Мюррэй

    Описание

    Действие происходит через несколько лет после того, как Малефисента наложила злые чары на принцессу Аврору. Фильм рассказывает про сложную взаимосвязь между тёмной феей и будущей королевой, о новых союзниках и противниках в деле защиты волшебного леса и магических существах, которые в нем обитают.

    Возраст: 6+ (зрителям, достигшим 6 лет)
    Рейтинг MPAA: PG (рекомендуется присутствие родителей)
    Дата мировой премьеры: 16 октября 2019
    Дата российской премьеры: 17 октября 2019, WDSSPR
    Продолжительность: 01: 58: 49
    Качество видео: WEB-DL
    Перевод: Дублированный (iTunes)
    Субтитры: Русские (Full, SDH), Казахские (Forced), Английские (Full)
    Видео: AVC/H.264, 1916x802 (2.40: 1), 4483 kbps, 23.976 fps
    Аудио 1: АС3, 6 ch, 384 Kbps | Русский
    Аудио 2: АAC, 2 ch, 125 Kbps | Казахский
    Аудио 3: АС3, 6 ch, 384 Kbps | Английский
    Аудио 4: АAC, 2 ch, 125 Kbps | Русский, ADОбщее
    Уникальный идентификатор : 178141582854625487056680316573785302844 (0x8604D224EE670AF385993E8C6488A73C)
    Полное имя : D: Малефисента.Владычица.тьмы.2019.WEB-DL.1080p.NNMClub.mkv
    Формат : Matroska
    Версия формата : Version 4
    Размер файла : 4, 57 Гбайт
    Продолжительность : 1 ч. 58 м.
    Общий поток : 5506 Кбит/сек
    Дата кодирования : UTC 2019-12-30 20: 21: 08
    Программа кодирования : mkvmerge v8.3.0 (\'Over the Horizon\') 64bit
    Библиотека кодирования : libebml v1.3.1 + libmatroska v1.4.2
    Видео
    Идентификатор : 1
    Формат : AVC
    Формат/Информация : Advanced Video Codec
    Профиль формата : High@L4
    Настройки формата : CABAC/5 Ref Frames
    Параметр CABAC формата : Да
    Параметр RefFrames формата : 5 кадров
    Идентификатор кодека : V_MPEG4/ISO/AVC
    Продолжительность : 1 ч. 58 м.
    Битрейт : 4483 Кбит/сек
    Ширина : 1916 пикселей
    Высота : 802 пикселя
    Соотношение сторон : 2, 40: 1
    Режим частоты кадров : Постоянный
    Частота кадров : 23, 976 (24000/1001) кадра/сек
    Цветовое пространство : YUV
    Субдискретизация насыщенности : 4: 2: 0
    Битовая глубина : 8 бит
    Тип развёртки : Прогрессивная
    Бит/(Пиксели*Кадры) : 0.122
    Размер потока : 3, 72 Гбайт (81%)
    Язык : English
    Default : Да
    Forced : Нет
    Цветовой диапазон : Limited
    Основные цвета : BT.709
    Характеристики трансфера : BT.709
    Коэффициенты матрицы : BT.709
    Аудио #1
    Идентификатор : 2
    Формат : AC-3
    Формат/Информация : Audio Coding 3
    Коммерческое название : Dolby Digital
    Идентификатор кодека : A_AC3
    Продолжительность : 1 ч. 58 м.
    Вид битрейта : Постоянный
    Битрейт : 384 Кбит/сек
    Каналы : 6 каналов
    ChannelLayout : L R C LFE Ls Rs
    Частота : 48, 0 КГц
    Частота кадров : 31, 250 кадров/сек (1536 SPF)
    Битовая глубина : 16 бит
    Метод сжатия : С потерями
    Размер потока : 326 Мбайт (7%)
    Заголовок : iTunes
    Язык : Russian
    ServiceKind/String : Complete Main
    Default : Да
    Forced : Нет
    Аудио #2
    Идентификатор : 3
    Формат : AAC LC
    Формат/Информация : Advanced Audio Codec Low Complexity
    Идентификатор кодека : A_AAC-2
    Продолжительность : 1 ч. 58 м.
    Битрейт : 125 Кбит/сек
    Каналы : 2 канала
    ChannelLayout : L R
    Частота : 44, 1 КГц
    Частота кадров : 43, 066 кадра/сек (1024 SPF)
    Метод сжатия : С потерями
    Размер потока : 107 Мбайт (2%)
    Заголовок : iTunes
    Язык : Kazakh
    Default : Нет
    Forced : Нет
    Аудио #3
    Идентификатор : 4
    Формат : AC-3
    Формат/Информация : Audio Coding 3
    Коммерческое название : Dolby Digital
    Идентификатор кодека : A_AC3
    Продолжительность : 1 ч. 58 м.
    Вид битрейта : Постоянный
    Битрейт : 384 Кбит/сек
    Каналы : 6 каналов
    ChannelLayout : L R C LFE Ls Rs
    Частота : 48, 0 КГц
    Частота кадров : 31, 250 кадров/сек (1536 SPF)
    Битовая глубина : 16 бит
    Метод сжатия : С потерями
    Размер потока : 326 Мбайт (7%)
    Заголовок : Original
    Язык : English
    ServiceKind/String : Complete Main
    Default : Нет
    Forced : Нет
    Аудио #4
    Идентификатор : 5
    Формат : AAC LC
    Формат/Информация : Advanced Audio Codec Low Complexity
    Идентификатор кодека : A_AAC-2
    Продолжительность : 1 ч. 58 м.
    Битрейт : 125 Кбит/сек
    Каналы : 2 канала
    ChannelLayout : L R
    Частота : 44, 1 КГц
    Частота кадров : 43, 066 кадра/сек (1024 SPF)
    Метод сжатия : С потерями
    Размер потока : 106 Мбайт (2%)
    Заголовок : AD
    Язык : Russian
    Default : Нет
    Forced : Нет
    Текст #1
    Идентификатор : 6
    Формат : UTF-8
    Идентификатор кодека : S_TEXT/UTF8
    Идентификатор кодека/Информация : UTF-8 Plain Text
    Продолжительность : 1 ч. 57 м.
    Битрейт : 47 бит/сек
    ElementCount : 1011
    Размер потока : 40, 7 Кбайт (0%)
    Заголовок : Full
    Язык : Russian
    Default : Нет
    Forced : Нет
    Текст #2
    Идентификатор : 7
    Формат : UTF-8
    Идентификатор кодека : S_TEXT/UTF8
    Идентификатор кодека/Информация : UTF-8 Plain Text
    Продолжительность : 1 ч. 50 м.
    Битрейт : 69 бит/сек
    ElementCount : 1560
    Размер потока : 56, 4 Кбайт (0%)
    Заголовок : SDH
    Язык : Russian
    Default : Нет
    Forced : Нет
    Текст #3
    Идентификатор : 8
    Формат : UTF-8
    Идентификатор кодека : S_TEXT/UTF8
    Идентификатор кодека/Информация : UTF-8 Plain Text
    Продолжительность : 7 с. 7 мс.
    Битрейт : 58 бит/сек
    ElementCount : 1
    Размер потока : 51, 0 байт (0%)
    Заголовок : Forced
    Язык : Kazakh
    Default : Нет
    Forced : Нет
    Текст #4
    Идентификатор : 9
    Формат : UTF-8
    Идентификатор кодека : S_TEXT/UTF8
    Идентификатор кодека/Информация : UTF-8 Plain Text
    Продолжительность : 1 ч. 49 м.
    Битрейт : 32 бит/сек
    ElementCount : 1020
    Размер потока : 25, 6 Кбайт (0%)
    Заголовок : Full
    Язык : English
    Default : Нет
    Forced : Нет
    Меню
    00: 00: 00.000 : en: 1
    00: 06: 47.240 : en: 2
    00: 09: 11.008 : en: 3
    00: 14: 44.883 : en: 4
    00: 19: 27.164 : en: 5
    00: 23: 09.885 : en: 6
    00: 33: 51.233 : en: 7
    00: 39: 09.593 : en: 8
    00: 42: 18.906 : en: 9
    00: 48: 31.319 : en: 10
    00: 52: 44.070 : en: 11
    00: 57: 14.465 : en: 12
    00: 59: 25.470 : en: 13
    01: 05: 46.893 : en: 14
    01: 09: 31.074 : en: 15
    01: 19: 06.566 : en: 16
    01: 22: 47.870 : en: 17
    01: 29: 08.541 : en: 18
    01: 34: 59.975 : en: 19
    01: 44: 25.832 : en: 20
    01: 51: 06.315 : en: 21

    Скриншоты для ознакомления



    Все одноименные релизы в Клубе
    Время раздачи: 24/7 (до появления первых 3-5 скачавших)

    Онлайн видео Малефисента: Владычица тьмы



    Малефисента: Владычица тьмы/Maleficent: Mistress of Evil (2019) WEB-DL [H.264/1080p-LQ]
    Рейтинг →
     (голосов: 1, оценка 4/5, голосовать можно 1 раз )

    Другие торренты по теме:

  • Малефисента: Владычица тьмы / Maleficent: Mistress of Evil (2019) CAMRip [H.264 / 720p-LQ] [AD]
  • Малефисента: Владычица тьмы / Maleficent: Mistress of Evil (2019) WEB-DLRip
  • Малефисента: Владычица тьмы / Maleficent: Mistress of Evil (2019) WEB-DL [H.264 / 720p]
  • Малефисента: Владычица тьмы / Maleficent: Mistress of Evil (2019) WEB-DLRip [H.264]
  • Малефисента: Владычица тьмы / Maleficent: Mistress of Evil (2019) WEB-DL [H.264 / 1080p]
  • Малефисента: Владычица тьмы / Maleficent: Mistress of Evil (2019) WEB-DLRip [H.264]
  • Малефисента: Владычица тьмы / Maleficent: Mistress of Evil (2019) BDRip [H.264 / 1080p] [PR]
  • Малефисента: Владычица тьмы / Maleficent: Mistress of Evil (2019) WEBRip [H.264 / 720p-LQ]


    • Комментарии (0):

      Информация

      Информация

        Посетители, находящиеся в группе Гости, не могут оставлять комментарии в данной новости.

        ↓ Меню




        ↓ Опрос

        Вы добавили сайт в закладки?
        Да
        Нет


        Популярное