.
Авторизация | Регистрация
bitok.xyz
» » Чёрный и синий / Black and Blue (2019) WEB-DL [H.264 / 1080p-LQ] торрент скачать бесплатно


    Чёрный и синий / Black and Blue (2019) WEB-DL [H.264 / 1080p-LQ] торрент скачать бесплатно

    Дата: 31-12-2019, 05:00 | .torrent скачали: 0

    Чёрный и синий / Black and Blue (2019) WEB-DL [H.264 / 1080p-LQ]Производство: США/Hidden Empire Film Group, Royal Viking Entertainment, Screen Gems
    Жанр: Боевик, триллер, драма, криминал
    Режиссер: Деон Тейлор

    Актеры
    Майк Колтер, Фрэнк Грилло, Рейд Скотт, Наоми Харрис, Бо Напп, Тайриз Гибсон, Кеннет Кинт Брайан, Нафиса Уильямс, Майкл Пападжон, Нельсон Бонилья

    Описание

    Камера закрепленная на теле полицейской-новобранца из Детройта фиксирует факты коррупционных связей местной полиции и криминальных банд. И теперь, чтобы уничтожить отснятый материал, на главную героиню устраивают масштабную облаву.

    Рейтинг MPAA: R (лицам до 17 лет обязательно присутствие взрослого)
    Дата мировой премьеры: 21 сентября 2019
    Продолжительность: 01: 47: 55
    Качество видео: WEB-DL
    Перевод: Многоголосый профессиональный (iTunes)
    Субтитры: Русские (Full), украинские (Full), английские
    Видео: AVC/H.264, 1920x796, ~4694 Kbps
    Аудио #01: AC3, 2 ch, 160 Kbps (Русский, MVO iTunes)
    Аудио #02: AAC, 2 ch, 127 Kbps (Русский, MVO iTunes)
    Аудио #03: AC3, 6 ch, 384 Kbps (Английский)
    General
    Unique ID : 110042827821701097010417697955660354585 (0x52C97A4C4BCE11CB94E437586812D419)
    Complete name : E: Video111Black.and.Blue.2019.WEB-DL.1080p.seleZen.mkv
    Format : Matroska
    Format version : Version 4
    File size : 4.05 GiB
    Duration : 1 h 47 min
    Overall bit rate : 5 367 kb/s
    Movie name : Black and Blue 2019 from селезень
    Encoded date : UTC 2019-12-30 17: 54: 19
    Writing application : mkvmerge v40.0.0 (\'Old Town Road + Pony\') 64-bit
    Writing library : libebml v1.3.9 + libmatroska v1.5.2
    Video
    ID : 1
    Format : AVC
    Format/Info : Advanced Video Codec
    Format profile : High@L4
    Format settings : CABAC/5 Ref Frames
    Format settings, CABAC : Yes
    Format settings, Reference : 5 frames
    Codec ID : V_MPEG4/ISO/AVC
    Duration : 1 h 47 min
    Bit rate : 4 694 kb/s
    Width : 1 920 pixels
    Height : 796 pixels
    Display aspect ratio : 2.40: 1
    Frame rate mode : Constant
    Frame rate : 23.976 (24000/1001) FPS
    Color space : YUV
    Chroma subsampling : 4: 2: 0
    Bit depth : 8 bits
    Scan type : Progressive
    Bits/(Pixel*Frame) : 0.128
    Stream size : 3.54 GiB (87%)
    Language : English
    Default : Yes
    Forced : No
    Color range : Limited
    Color primaries : BT.709
    Transfer characteristics : BT.709
    Matrix coefficients : BT.709
    Audio #1
    ID : 2
    Format : AC-3
    Format/Info : Audio Coding 3
    Commercial name : Dolby Digital
    Codec ID : A_AC3
    Duration : 1 h 47 min
    Bit rate mode : Constant
    Bit rate : 160 kb/s
    Channel(s) : 2 channels
    Channel layout : L R
    Sampling rate : 48.0 kHz
    Frame rate : 31.250 FPS (1536 SPF)
    Compression mode : Lossy
    Stream size : 124 MiB (3%)
    Title : iTunes
    Language : Russian
    Service kind : Complete Main
    Default : Yes
    Forced : Yes
    Audio #2
    ID : 3
    Format : AAC LC
    Format/Info : Advanced Audio Codec Low Complexity
    Codec ID : A_AAC-2
    Duration : 1 h 47 min
    Bit rate : 127 kb/s
    Channel(s) : 2 channels
    Channel layout : L R
    Sampling rate : 48.0 kHz
    Frame rate : 46.875 FPS (1024 SPF)
    Compression mode : Lossy
    Stream size : 97.7 MiB (2%)
    Title : iTunes
    Language : Russian
    Default : No
    Forced : No
    Audio #3
    ID : 4
    Format : AC-3
    Format/Info : Audio Coding 3
    Commercial name : Dolby Digital
    Codec ID : A_AC3
    Duration : 1 h 47 min
    Bit rate mode : Constant
    Bit rate : 384 kb/s
    Channel(s) : 6 channels
    Channel layout : L R C LFE Ls Rs
    Sampling rate : 48.0 kHz
    Frame rate : 31.250 FPS (1536 SPF)
    Compression mode : Lossy
    Stream size : 296 MiB (7%)
    Title : Original
    Language : English
    Service kind : Complete Main
    Default : No
    Forced : No
    Text #1
    ID : 5
    Format : UTF-8
    Codec ID : S_TEXT/UTF8
    Codec ID/Info : UTF-8 Plain Text
    Duration : 1 h 47 min
    Bit rate : 64 b/s
    Count of elements : 1251
    Stream size : 51.2 KiB (0%)
    Title : Full
    Language : Russian
    Default : No
    Forced : No
    Text #2
    ID : 6
    Format : UTF-8
    Codec ID : S_TEXT/UTF8
    Codec ID/Info : UTF-8 Plain Text
    Duration : 1 h 47 min
    Bit rate : 67 b/s
    Count of elements : 1263
    Stream size : 53.3 KiB (0%)
    Title : Full
    Language : Ukrainian
    Default : No
    Forced : No
    Text #3
    ID : 7
    Format : UTF-8
    Codec ID : S_TEXT/UTF8
    Codec ID/Info : UTF-8 Plain Text
    Duration : 1 h 43 min
    Bit rate : 51 b/s
    Count of elements : 1245
    Stream size : 38.6 KiB (0%)
    Title : Full
    Language : English
    Default : No
    Forced : No
    Menu
    00: 00: 00.000 : en: 1
    00: 05: 25.283 : en: 2
    00: 10: 35.885 : en: 3
    00: 16: 37.579 : en: 4
    00: 23: 31.993 : en: 5
    00: 30: 24.530 : en: 6
    00: 39: 07.885 : en: 7
    00: 47: 22.671 : en: 8
    00: 55: 03.172 : en: 9
    01: 01: 53.539 : en: 10
    01: 09: 41.590 : en: 11
    01: 17: 40.776 : en: 12
    01: 21: 46.145 : en: 13
    01: 24: 40.360 : en: 14
    01: 30: 22.701 : en: 15
    01: 40: 19.963 : en: 16

    Скриншоты для ознакомления



    Все одноименные релизы в Клубе
    Время раздачи: 24/7 (до появления первых 3-5 скачавших)

    Онлайн видео Чёрный и синий



    Чёрный и синий/Black and Blue (2019) WEB-DL [H.264/1080p-LQ]
    Рейтинг →
     (голосов: 1, оценка 4/5, голосовать можно 1 раз )

    Другие торренты по теме:

  • Чёрный и синий / Black and Blue (2019) WEB-DLRip
  • Чёрный и синий / Black and Blue (2019) BDRip [H.264 / 1080p]


    • Комментарии (0):

      Информация

      Информация

        Посетители, находящиеся в группе Гости, не могут оставлять комментарии в данной новости.

        ↓ Меню




        ↓ Опрос

        Вы добавили сайт в закладки?
        Да
        Нет


        Популярное