.
Авторизация | Регистрация
bitok.xyz
» » Перспектива / Prospect (2018) BDRip [H.264 / 1080p] торрент скачать бесплатно


    Перспектива / Prospect (2018) BDRip [H.264 / 1080p] торрент скачать бесплатно

    Дата: 31-12-2019, 05:00 | .torrent скачали: 2

    Перспектива / Prospect (2018) BDRip [H.264 / 1080p]Производство: Канада, США/Depth of Field, Ground Control, BRON Studios
    Жанр: Фантастика, триллер, драма
    Режиссер: Кристофер Колдуэлл, Зик Эрл

    Актеры
    Софи Тэтчер, Джей Дюпласс, Педро Паскаль, Люк Питцрик, Артур Деранло, Андре Ройо, Алекс МакКоли, Даг Доусон, Криста Джонсон, Брайан Гантер

    Описание

    Отец с дочерью отправляются на отдалённую планету, где планируют собирать драгоценные камни, сокрытые в глубине лесов. Добыв один, они натыкаются на двух опасных конкурентов. Из-за недопонимания и жадности между ними происходит перестрелка, в результате которой один из встреченных и отец погибают. Теперь, чтобы выжить на враждебной планете с ядовитой атмосферой, девушке придётся сотрудничать с оставшимся в живых незнакомцем.

    Рейтинг MPAA: R (лицам до 17 лет обязательно присутствие взрослого)
    Дата мировой премьеры: 10 марта 2018
    Цифровой релиз: 30 декабря 2019
    Продолжительность: 01: 39: 47
    Качество видео: BDRip 1080p(walledol)
    Перевод: Дублированный, Многоголосый профессиональный
    Субтитры: Русские, английские
    Видео: AVC/H.264, 1920x1012, 9210 Кbps, 23, 976 fps
    Аудио 1: AC3, 6 ch, 384 Kbps - Русский (DUB, iTunes)
    Аудио 2: AC3, 6 ch, 448 Kbps - Русский (MVO, HDRezka Studio)
    Аудио 3: DTS, 6 ch, 1509 Kbps - Английский
    x264 info: frame I: 905 Avg QP: 14.06 size: 206523
    x264 info: frame P: 32026 Avg QP: 16.89 size: 90925
    x264 info: frame B: 110633 Avg QP: 18.57 size: 34301
    x264 info: consecutive B-frames: 2.6% 3.8% 13.5% 6.5% 7.0% 62.5% 1.8% 0.5% 0.9% 1.0%
    Общее
    Уникальный идентификатор : 24894903256577085388047903836087830932 (0x12BA957EB1A7CC06EB97F7793D14C994)
    Полное имя : Prospect.2018.BDRip.1080p.W.mkv
    Формат : Matroska
    Версия формата : Version 4
    Размер файла : 8, 05 Гбайт
    Продолжительность : 1 ч. 39 м.
    Общий поток : 11, 6 Мбит/сек
    Название фильма : Prospect.2018.BDRip.1080p.W
    Дата кодирования : UTC 2019-12-30 15: 52: 06
    Программа кодирования : mkvmerge v23.0.0 (\'The Bride Said No\') 64-bit
    Библиотека кодирования : libebml v1.3.6 + libmatroska v1.4.9
    Видео
    Идентификатор : 1
    Формат : AVC
    Формат/Информация : Advanced Video Codec
    Профиль формата : High@L4.1
    Настройки формата : CABAC/4 Ref Frames
    Параметр CABAC формата : Да
    Параметр RefFrames формата : 4 кадра
    Идентификатор кодека : V_MPEG4/ISO/AVC
    Продолжительность : 1 ч. 39 м.
    Битрейт : 9210 Кбит/сек
    Ширина : 1920 пикселей
    Высота : 1012 пикселей
    Соотношение сторон : 1, 897
    Режим частоты кадров : Постоянный
    Частота кадров : 23, 976 (23976/1000) кадра/сек
    Цветовое пространство : YUV
    Субдискретизация насыщенности : 4: 2: 0
    Битовая глубина : 8 бит
    Тип развёртки : Прогрессивная
    Бит/(Пиксели*Кадры) : 0.198
    Размер потока : 6, 42 Гбайт (80%)
    Заголовок : rip by -=walledol=-
    Библиотека кодирования : x264 core 158 r2988 7817004
    Настройки программы : cabac=1/ref=4/deblock=1: -3: -3/analyse=0x3: 0x133/me=umh/subme=11/psy=1/psy_rd=1.00: 0.00/mixed_ref=1/me_range=32/chroma_me=1/trellis=2/8x8dct=1/cqm=0/deadzone=21, 11/fast_pskip=0/chroma_qp_offset=-2/threads=12/lookahead_threads=2/sliced_threads=0/nr=0/decimate=1/interlaced=0/bluray_compat=0/constrained_intra=0/bframes=9/b_pyramid=2/b_adapt=2/b_bias=0/direct=3/weightb=1/open_gop=0/weightp=2/keyint=240/keyint_min=23/scenecut=40/intra_refresh=0/rc_lookahead=60/rc=2pass/mbtree=0/bitrate=9210/ratetol=1.0/qcomp=0.60/qpmin=0/qpmax=69/qpstep=4/cplxblur=20.0/qblur=0.5/vbv_maxrate=30000/vbv_bufsize=33000/nal_hrd=none/filler=0/ip_ratio=1.40/pb_ratio=1.30/aq=3: 0.80/zones=135094, 143564, q=40
    Язык : English
    Default : Да
    Forced : Нет
    Аудио #1
    Идентификатор : 2
    Формат : AC-3
    Формат/Информация : Audio Coding 3
    Коммерческое название : Dolby Digital
    Идентификатор кодека : A_AC3
    Продолжительность : 1 ч. 39 м.
    Вид битрейта : Постоянный
    Битрейт : 384 Кбит/сек
    Каналы : 6 каналов
    ChannelLayout : L R C LFE Ls Rs
    Частота : 48, 0 КГц
    Частота кадров : 31, 250 кадров/сек (1536 SPF)
    Метод сжатия : С потерями
    Размер потока : 274 Мбайт (3%)
    Заголовок : DUB (iTunes)
    Язык : Russian
    ServiceKind/String : Complete Main
    Default : Да
    Forced : Нет
    Аудио #2
    Идентификатор : 3
    Формат : AC-3
    Формат/Информация : Audio Coding 3
    Коммерческое название : Dolby Digital
    Идентификатор кодека : A_AC3
    Продолжительность : 1 ч. 39 м.
    Вид битрейта : Постоянный
    Битрейт : 448 Кбит/сек
    Каналы : 6 каналов
    ChannelLayout : L R C LFE Ls Rs
    Частота : 48, 0 КГц
    Частота кадров : 31, 250 кадров/сек (1536 SPF)
    Метод сжатия : С потерями
    Размер потока : 320 Мбайт (4%)
    Заголовок : MVO (HDRezka Studio)
    Язык : Russian
    ServiceKind/String : Complete Main
    Default : Нет
    Forced : Нет
    Аудио #3
    Идентификатор : 4
    Формат : DTS
    Формат/Информация : Digital Theater Systems
    Идентификатор кодека : A_DTS
    Продолжительность : 1 ч. 39 м.
    Вид битрейта : Постоянный
    Битрейт : 1509 Кбит/сек
    Каналы : 6 каналов
    ChannelLayout : C L R Ls Rs LFE
    Частота : 48, 0 КГц
    Частота кадров : 93, 750 кадра/сек (512 SPF)
    Битовая глубина : 16 бит
    Метод сжатия : С потерями
    Размер потока : 1, 05 Гбайт (13%)
    Язык : English
    Default : Нет
    Forced : Нет
    Текст #1
    Идентификатор : 5
    Формат : UTF-8
    Идентификатор кодека : S_TEXT/UTF8
    Идентификатор кодека/Информация : UTF-8 Plain Text
    Продолжительность : 1 ч. 28 м.
    Битрейт : 51 бит/сек
    ElementCount : 663
    Размер потока : 33, 3 Кбайт (0%)
    Заголовок : Full
    Язык : Russian
    Default : Нет
    Forced : Нет
    Текст #2
    Идентификатор : 6
    Формат : UTF-8
    Идентификатор кодека : S_TEXT/UTF8
    Идентификатор кодека/Информация : UTF-8 Plain Text
    Продолжительность : 1 ч. 28 м.
    Битрейт : 34 бит/сек
    ElementCount : 763
    Размер потока : 22, 0 Кбайт (0%)
    Язык : English
    Default : Нет
    Forced : Нет
    Меню
    00: 00: 00.083 : en: Chapter 01
    00: 13: 03.365 : en: Chapter 02
    00: 21: 13.855 : en: Chapter 03
    00: 35: 12.193 : en: Chapter 04
    00: 46: 55.395 : en: Chapter 05
    01: 00: 59.739 : en: Chapter 06
    01: 12: 29.928 : en: Chapter 07
    01: 27: 07.805 : en: Chapter 08

    Скриншоты для ознакомления



    Все одноименные релизы в Клубе
    Время раздачи: 24/7 (до появления первых 3-5 скачавших)

    Онлайн видео Перспектива



    Перспектива/Prospect (2018) BDRip [H.264/1080p]
    Рейтинг →
     (голосов: 1, оценка 4/5, голосовать можно 1 раз )

    Другие торренты по теме:

  • Перспектива / Prospect (2018) WEB-DLRip [MVO] [AD]
  • Перспектива / Prospect (2018) WEB-DLRip [H.264 / 1080p-LQ] [MVO]
  • Перспектива / Prospect (2018) WEB-DLRip [H.264 / 720p-LQ]
  • Перспектива / Prospect (2018) WEB-DL [H.264 / 1080p-LQ] [MVO]
  • Перспектива / Prospect (2018) UHD BDRip [H.265 / 2160p] [4K, HDR, 10-bit]
  • Перспектива / Prospect (2018) BDRip [H.264]
  • Перспектива / Prospect (2018) BDRip
  • Перспектива / Prospect (2018) BDRip [H.264 / 720p]


    • Комментарии (0):

      Информация

      Информация

        Посетители, находящиеся в группе Гости, не могут оставлять комментарии в данной новости.

        ↓ Меню




        ↓ Опрос

        Вы добавили сайт в закладки?
        Да
        Нет


        Популярное