.
Авторизация | Регистрация
bitok.xyz
» » Однажды в… Голливуде / Once Upon a Time ... in Hollywood (2019) BDRip [H.264 / 720p] торрент скачать бесплатно


    Однажды в… Голливуде / Once Upon a Time ... in Hollywood (2019) BDRip [H.264 / 720p] торрент скачать бесплатно

    Дата: 31-12-2019, 05:00 | .torrent скачали: 0

    Однажды в… Голливуде / Once Upon a Time ... in Hollywood (2019) BDRip [H.264 / 720p]Производство: США, Великобритания, Китай/Columbia Pictures, Bona Film Group, Heyday Films
    Жанр: драма, комедия
    Режиссер: Квентин Тарантино

    Актеры
    Брэд Питт, Леонардо ДиКаприо, Марго Робби, Майя Хоук, Остин Роберт Батлер, Сидни Свини, Маргарет Куэлли, Дакота Фэннинг, Тимоти Олифант, Аль Пачино, Эмиль Хирш, Джулия Баттерз, Брюс Дерн

    Описание

    Фильм повествует о череде событий, произошедших в Голливуде в 1969 году, на закате его золотого века. Известный актер Рик Далтон и его дублер Клифф Бут пытаются найти свое место в стремительно меняющемся мире киноиндустрии.

    Возраст: 18+ (зрителям, достигшим 18 лет. запрещено для детей)
    Рейтинг MPAA: R (лицам до 17 лет обязательно присутствие взрослого)
    Дата мировой премьеры: 21 мая 2019
    Дата российской премьеры: 8 августа 2019
    Релиз от: k.e.n MegaPeer
    Продолжительность: 02: 41: 29
    Качество видео: BDRip
    Перевод: Дублированный, авторский
    Субтитры: Русские, украинские, английские
    Видео: AVC/H.264, 1280x534, 23.976 fps, 4 633 kbps
    Аудио #1: AC3, 6 ch, 448 kbps - Русский, DUB
    Аудио #2: AC3, 2 ch, 256 kbps - Русский, AVO А.Дольский
    Аудио #3: AC3, 6 ch, 448 kbps - Русский, AVO М.Яроцкий
    Аудио #4: AC3, 6 ch, 448 kbps - Английский, OriginalFormat : Matroska
    Format version : Version 2
    File size : 7.04 GiB
    Duration : 2 h 41 min
    Overall bit rate : 6 238 kb/s
    Encoded date : UTC 2019-12-30 13: 04: 09
    Writing application : mkvmerge v5.3.0 (\'I could have danced\') built on Feb 9 2012 10: 38: 07
    Writing library : libebml v1.2.3 + libmatroska v1.3.0
    Cover : Yes
    Attachments : cover.png/cover.jpg
    Video
    ID : 1
    Format : AVC
    Format/Info : Advanced Video Codec
    Format profile : High@L4.1
    Format settings : CABAC/12 Ref Frames
    Format settings, CABAC : Yes
    Format settings, Reference frames : 12 frames
    Codec ID : V_MPEG4/ISO/AVC
    Duration : 2 h 41 min
    Bit rate : 4 633 kb/s
    Width : 1 280 pixels
    Height : 534 pixels
    Display aspect ratio : 2.40: 1
    Frame rate mode : Constant
    Frame rate : 23.976 (24000/1001) FPS
    Color space : YUV
    Chroma subsampling : 4: 2: 0
    Bit depth : 8 bits
    Scan type : Progressive
    Bits/(Pixel*Frame) : 0.283
    Stream size : 5.09 GiB (72%)
    Writing library : x264 core 157 r2945 72db437
    Encoding settings : cabac=1/ref=12/deblock=1: -3: -3/analyse=0x3: 0x133/me=umh/subme=11/psy=1/psy_rd=1.00: 0.00/mixed_ref=1/me_range=32/chroma_me=1/trellis=2/8x8dct=1/cqm=0/deadzone=21, 11/fast_pskip=0/chroma_qp_offset=-2/threads=12/lookahead_threads=3/sliced_threads=0/nr=0/decimate=0/interlaced=0/bluray_compat=0/constrained_intra=0/bframes=11/b_pyramid=2/b_adapt=2/b_bias=0/direct=3/weightb=1/open_gop=0/weightp=2/keyint=240/keyint_min=23/scenecut=40/intra_refresh=0/rc=2pass/mbtree=0/bitrate=4633/ratetol=1.0/qcomp=0.65/qpmin=0/qpmax=69/qpstep=4/cplxblur=20.0/qblur=0.5/ip_ratio=1.30/pb_ratio=1.20/aq=3: 0.80
    Language : English
    Default : Yes
    Forced : No
    Color range : Limited
    Color primaries : BT.709
    Transfer characteristics : BT.709
    Matrix coefficients : BT.709
    Audio #1
    ID : 2
    Format : AC-3
    Format/Info : Audio Coding 3
    Commercial name : Dolby Digital
    Codec ID : A_AC3
    Duration : 2 h 41 min
    Bit rate mode : Constant
    Bit rate : 448 kb/s
    Channel(s) : 6 channels
    Channel layout : L R C LFE Ls Rs
    Sampling rate : 48.0 kHz
    Frame rate : 31.250 FPS (1536 SPF)
    Bit depth : 16 bits
    Compression mode : Lossy
    Stream size : 517 MiB (7%)
    Title : DUB
    Language : Russian
    Service kind : Complete Main
    Default : Yes
    Forced : Yes
    Audio #2
    ID : 3
    Format : AC-3
    Format/Info : Audio Coding 3
    Commercial name : Dolby Digital
    Codec ID : A_AC3
    Duration : 2 h 41 min
    Bit rate mode : Constant
    Bit rate : 256 kb/s
    Channel(s) : 2 channels
    Channel layout : L R
    Sampling rate : 48.0 kHz
    Frame rate : 31.250 FPS (1536 SPF)
    Bit depth : 16 bits
    Compression mode : Lossy
    Stream size : 296 MiB (4%)
    Title : AVO А.Дольский
    Language : Russian
    Service kind : Complete Main
    Default : No
    Forced : No
    Audio #3
    ID : 4
    Format : AC-3
    Format/Info : Audio Coding 3
    Commercial name : Dolby Digital
    Codec ID : A_AC3
    Duration : 2 h 41 min
    Bit rate mode : Constant
    Bit rate : 448 kb/s
    Channel(s) : 6 channels
    Channel layout : L R C LFE Ls Rs
    Sampling rate : 48.0 kHz
    Frame rate : 31.250 FPS (1536 SPF)
    Bit depth : 16 bits
    Compression mode : Lossy
    Stream size : 517 MiB (7%)
    Title : AVO М.Яроцкий
    Language : Russian
    Service kind : Complete Main
    Default : No
    Forced : No
    Audio #4
    ID : 5
    Format : AC-3
    Format/Info : Audio Coding 3
    Commercial name : Dolby Digital
    Codec ID : A_AC3
    Duration : 2 h 41 min
    Bit rate mode : Constant
    Bit rate : 448 kb/s
    Channel(s) : 6 channels
    Channel layout : L R C LFE Ls Rs
    Sampling rate : 48.0 kHz
    Frame rate : 31.250 FPS (1536 SPF)
    Bit depth : 16 bits
    Compression mode : Lossy
    Stream size : 517 MiB (7%)
    Title : Original
    Language : English
    Service kind : Complete Main
    Default : No
    Forced : No
    Text #1
    ID : 6
    Format : UTF-8
    Codec ID : S_TEXT/UTF8
    Codec ID/Info : UTF-8 Plain Text
    Title : Forced
    Language : Russian
    Default : Yes
    Forced : Yes
    Text #2
    ID : 7
    Format : UTF-8
    Codec ID : S_TEXT/UTF8
    Codec ID/Info : UTF-8 Plain Text
    Title : Full
    Language : Russian
    Default : No
    Forced : No
    Text #3
    ID : 8
    Format : UTF-8
    Codec ID : S_TEXT/UTF8
    Codec ID/Info : UTF-8 Plain Text
    Title : Full
    Language : Ukrainian
    Default : No
    Forced : No
    Text #4
    ID : 9
    Format : UTF-8
    Codec ID : S_TEXT/UTF8
    Codec ID/Info : UTF-8 Plain Text
    Title : SDH
    Language : English
    Default : No
    Forced : No
    Menu
    00: 00: 00.000 : en: 00: 00: 00.000
    00: 04: 49.414 : en: 00: 04: 49.414
    00: 13: 45.199 : en: 00: 13: 45.199
    00: 18: 29.150 : en: 00: 18: 29.150
    00: 22: 00.319 : en: 00: 22: 00.319
    00: 25: 59.349 : en: 00: 25: 59.349
    00: 28: 41.094 : en: 00: 28: 41.094
    00: 33: 45.106 : en: 00: 33: 45.106
    00: 40: 19.334 : en: 00: 40: 19.334
    00: 49: 59.455 : en: 00: 49: 59.455
    00: 51: 48.689 : en: 00: 51: 48.689
    00: 59: 52.255 : en: 00: 59: 52.255
    01: 02: 32.874 : en: 01: 02: 32.874
    01: 04: 28.615 : en: 01: 04: 28.615
    01: 09: 16.736 : en: 01: 09: 16.736
    01: 17: 40.781 : en: 01: 17: 40.781
    01: 20: 25.779 : en: 01: 20: 25.779
    01: 26: 28.433 : en: 01: 26: 28.433
    01: 32: 54.444 : en: 01: 32: 54.444
    01: 39: 58.492 : en: 01: 39: 58.492
    01: 47: 55.219 : en: 01: 47: 55.219
    01: 53: 00.232 : en: 01: 53: 00.232
    01: 58: 09.541 : en: 01: 58: 09.541
    02: 06: 23.993 : en: 02: 06: 23.993
    02: 11: 22.958 : en: 02: 11: 22.958
    02: 15: 50.100 : en: 02: 15: 50.100
    02: 21: 30.190 : en: 02: 21: 30.190
    02: 29: 50.732 : en: 02: 29: 50.732
    02: 36: 28.254 : en: 02: 36: 28.254
    02: 38: 51.230 : en: 02: 38: 51.230
    Скриншоты для ознакомления



    Все одноименные релизы в Клубе
    Время раздачи: c 5 до 19 мск (до появления первых 3-5 скачавших)

    Онлайн видео Однажды в… Голливуде



    Однажды в… Голливуде/Once Upon a Time ... in Hollywood (2019) BDRip [H.264/720p]
    Рейтинг →
     (голосов: 1, оценка 4/5, голосовать можно 1 раз )

    Другие торренты по теме:

  • Однажды в Голливуде / What Just Happened (2008) BDRip [H.264 / 1080p]
  • Однажды в… Голливуде / Once Upon a Time ... in Hollywood (2019) CAMRip [MVO] [AD]
  • Однажды в… Голливуде / Once Upon a Time ... in Hollywood (2019) WEBRip [H.264 / 720p-LQ] [AVO] [PR]
  • Однажды в… Голливуде / Once Upon a Time ... in Hollywood (2019) WEBRip [H.264 / 1080p-LQ] [AVO] [PR]
  • Однажды в… Голливуде / Once Upon a Time ... in Hollywood (2019) WEBRip [H.264] [AVO] [PR]
  • Однажды в… Голливуде / Once Upon a Time ... in Hollywood (2019) WEB-DLRip
  • Однажды в… Голливуде / Once Upon a Time ... in Hollywood (2019) WEB-DL [H.264 / 720p]
  • Однажды в… Голливуде / Once Upon a Time ... in Hollywood (2019) WEB-DL [H.264 / 1080p]


    • Комментарии (0):

      Информация

      Информация

        Посетители, находящиеся в группе Гости, не могут оставлять комментарии в данной новости.

        ↓ Меню




        ↓ Опрос

        Вы добавили сайт в закладки?
        Да
        Нет


        Популярное

        Полицейский с Рублёвки. Новогодний беспредел 2 (2019) CamRip [AD]

        (скачиваний: 1815)
        Властелин колец: Трилогия / The Lord of the Rings: Trilogy (2001,2002,2003) BDRip [H.264] [Extended Editions] скачать через торрент бесплатно

        (скачиваний: 663)
        Властелин колец / The Lord of the Rings (2001,2002,2003) BDRip [Extended Edition] [H.264 / 1080p-LQ] [Hi10P]

        (скачиваний: 655)
        Начало / Inception (2010) BDRip [H.265 / 1080p]

        (скачиваний: 629)
        Властелин колец / The Lord of the Rings (2001,2002,2003) BDRip [1080p] [Extended Edition] [Трилогия]

        (скачиваний: 607)
        Квартирник НТВ у Маргулиса. Новогодний выпуск (31.12.2019) WEB-DL [H.264 / 1080p-LQ]

        (скачиваний: 452)
        Каникулы off-line (2018) WEBRip

        (скачиваний: 432)
        Хоббит: Трилогия / The Hobbit: Trilogy (2012, 2013, 2014) BDRip [H.265 / 1080p-LQ] [10-bit] [Расширенная версия]

        (скачиваний: 396)
        Властелин колец / The Lord of the Rings (2001,2002,2003) BDRip [1080p] [Extended Edition] [Трилогия] скачать через торрент бесплатно

        (скачиваний: 264)
        Во все тяжкие / Breaking Bad (2008-2013) BDRip [H.264 / 1080p] (сезон 1-5, серии 1-62 из 62) Кубик в Кубе, LostFilm скачать через торрент бесплатно

        (скачиваний: 252)