.
Авторизация | Регистрация
bitok.xyz
» » Кто твоя бабушка, чувак / Cest quoi cette mamie! (2019) BDRip торрент скачать бесплатно


    Кто твоя бабушка, чувак / Cest quoi cette mamie! (2019) BDRip торрент скачать бесплатно

    Дата: 31-12-2019, 05:00 | .torrent скачали: 0

    Кто твоя бабушка, чувак / Cest quoi cette mamie! (2019) BDRipПроизводство: Франция, Бельгия/6ter, Bonne Pioche, Centre National de la Cinématographie (CNC)
    Жанр: Комедия
    Режиссер: Габриэль Жюльен-Лаферье
    Продюсер: Ив Дарондо, Эммануэль Приу

    Актеры
    Шанталь Ладезу, Жюли Гайе, Тьерри Нёвик, Жюли Депардье, Люсьен Жан-Батист, Клаудия Тагбо, Филипп Катрин, Арие Эльмалех, Нино Киртадзе, Садио Диалло

    Описание

    Аврора наслаждается богатой жизнью в своих апартаментах на Лазурном Берегу во Франции. Вечеринки, друзья, путешествия, и самое важное — свое расписание дня. В один день дочери отправляют погостить к ней семь внуков от 6-ти до 18 лет.

    Возраст: 12+ (зрителям, достигшим 12 лет)
    Дата мировой премьеры: 2 августа 2019
    Дата российской премьеры: 21 ноября 2019
    Продолжительность: 01: 39: 20
    Качество видео: BDRip
    Перевод: Профессиональный многоголосый (iTunes)
    Субтитры: Отсутствуют
    Видео: Xvid, 688x288, ~910 kbps
    Аудио: MP3, 2 ch, 128 kbps - русский (MVO)
    Полное имя : C: C.est.Quoi.Cette.Mamie.2019.BDRip.740.mb.avi
    Формат : AVI
    Формат/Информация : Audio Video Interleave
    Размер файла : 744 Мбайт
    Продолжительность : 1 ч. 39 м.
    Общий поток : 1047 Кбит/сек
    Программа кодирования : VirtualDubMod 1.5.10.3 | (build 2550/release)
    Библиотека кодирования : VirtualDubMod build 2550/release
    Видео
    Идентификатор : 0
    Формат : MPEG-4 Visual
    Профиль формата : Advanced Simple@L5
    Параметр BVOP формата : 1
    Параметр QPel формата : Нет
    Параметр GMC формата : Без точки перехода
    Параметр матрицы формата : Выборочная
    Идентификатор кодека : XVID
    Идентификатор кодека/Подсказка : XviD
    Продолжительность : 1 ч. 39 м.
    Битрейт : 910 Кбит/сек
    Ширина : 688 пикселей
    Высота : 288 пикселей
    Соотношение сторон : 2, 40: 1
    Частота кадров : 23, 976 кадра/сек
    Цветовое пространство : YUV
    Субдискретизация насыщенности : 4: 2: 0
    Битовая глубина : 8 бит
    Тип развёртки : Прогрессивная
    Метод сжатия : С потерями
    Бит/(Пиксели*Кадры) : 0.191
    Размер потока : 646 Мбайт (87%)
    Библиотека кодирования : XviD 73
    Аудио
    Идентификатор : 1
    Формат : MPEG Audio
    Версия формата : Version 1
    Профиль формата : Layer 3
    Идентификатор кодека : 55
    Идентификатор кодека/Подсказка : MP3
    Продолжительность : 1 ч. 39 м.
    Вид битрейта : Постоянный
    Битрейт : 128 Кбит/сек
    Каналы : 2 канала
    Частота : 48, 0 КГц
    Метод сжатия : С потерями
    Размер потока : 90, 9 Мбайт (12%)
    Выравнивание : Соединение по промежуткам
    Продолжительность промежутка : 42 мс. (1, 00 видеокадр)
    Время предзагрузки промежутка : 504 мс.
    Библиотека кодирования : LAME3.99r
    Настройки программы : -m s -V 4 -q 2 -lowpass 17 -b 128

    Скриншоты для ознакомления



    Все одноименные релизы в Клубе
    Время раздачи: с 08.00 до 24.00 (до появления первых 3-5 скачавших)

    Онлайн видео Кто твоя бабушка, чувак



    Кто твоя бабушка, чувак/Cest quoi cette mamie! (2019) BDRip
    Рейтинг →
     (голосов: 1, оценка 5/5, голосовать можно 1 раз )

    Другие торренты по теме:

  • Кто твоя бабушка, чувак / Cest quoi cette mamie! (2019) WEB-DL [H.264 / 1080p-LQ]
  • Кто твоя бабушка, чувак / Cest quoi cette mamie! (2019) WEB-DLRip [H.264]
  • Кто твоя бабушка, чувак / Cest quoi cette mamie! (2019) BDRip
  • Кто твоя бабушка, чувак / Cest quoi cette mamie! (2019) BDRip [H.264 / 1080p]


    • Комментарии (0):

      Информация

      Информация

        Посетители, находящиеся в группе Гости, не могут оставлять комментарии в данной новости.

        ↓ Меню




        ↓ Опрос

        Вы добавили сайт в закладки?
        Да
        Нет


        Популярное