.
Авторизация | Регистрация
bitok.xyz
» » Болевой порог (2019) WEB-DLRip [H.264] [PR] торрент скачать бесплатно


    Болевой порог (2019) WEB-DLRip [H.264] [PR] торрент скачать бесплатно

    Дата: 31-12-2019, 05:00 | .torrent скачали: 4

    Болевой порог (2019) WEB-DLRip [H.264] [PR]Производство: Россия/Лук-фильм
    Жанр: Триллер, Приключения, Драма
    Режиссер: Андрей Симонов

    Актеры
    Арина Постникова, Роман Курцын, Кирилл Комаров, Наталья Скоморохова, Григорий Чабан, Александр Голубков, Олег Фомин, Евгений Атарик, Евгений Мундум, Алексей Дерябкин, Вилен Бабичев

    Описание

    В результате скандального ДТП четверо москвичей — двое друзей и их девушки — вынуждены уехать из столицы в Горный Алтай. Они хотят расслабиться и отдохнуть, но вновь попадают в экстремальную ситуацию, где каждый проявит свой характер и столкнется с собственными демонами. На кону — дружба, любовь и сама возможность остаться в живых.

    Возраст: 16+ (зрителям, достигшим 16 лет)
    Дата российской премьеры: 10 октября 2019, СБ Фильм
    Продолжительность: 01: 21: 05
    Качество видео: WEB-DLRip
    Перевод: Не требуется (Русский)
    Субтитры: Отсутствуют
    Видео: AVC/H.264, 806x340, ~1093 kbps
    Аудио: AC3, 2 ch, 192 kbps
    Complete name : D: РаздачаБолевой порог (2019) WEB-DLRip-AVC.mkv
    Format : Matroska
    Format version : Version 2
    File size : 746 MiB
    Duration : 1 h 21 min
    Overall bit rate : 1 287 kb/s
    Movie name : Болевой порог (2019) WEB-DLRip-AVC
    Encoded date : UTC 2019-11-15 03: 08: 00
    Writing application : mkvmerge v4.4.0 (\'Die Wiederkehr\') сборка от Jan 3 2011 21: 40: 45
    Writing library : libebml v1.0.0 + libmatroska v1.0.0
    Cover : Yes
    Attachments : cover.jpg
    Video
    ID : 1
    Format : AVC
    Format/Info : Advanced Video Codec
    Format profile : High@L4.1
    Format settings : CABAC/14 Ref Frames
    Format settings, CABAC : Yes
    Format settings, Reference : 14 frames
    Codec ID : V_MPEG4/ISO/AVC
    Duration : 1 h 21 min
    Bit rate : 1 093 kb/s
    Width : 806 pixels
    Height : 340 pixels
    Display aspect ratio : 2.40: 1
    Frame rate mode : Constant
    Frame rate : 25.000 FPS
    Color space : YUV
    Chroma subsampling : 4: 2: 0
    Bit depth : 8 bits
    Scan type : Progressive
    Bits/(Pixel*Frame) : 0.160
    Stream size : 620 MiB (83%)
    Title : Rip by ivanes
    Writing library : x264 core 158 r2984+49 6932f4a t_mod_New 0-bit@all X86
    Encoding settings : cabac=1/ref=14/deblock=1: -3: -3/analyse=0x3: 0x113/me=umh/subme=10/psy=1/fade_compensate=0.00/psy_rd=1.00: 0.00/mixed_ref=1/me_range=32/chroma_me=1/trellis=2/8x8dct=1/cqm=0/deadzone=21, 11/fast_pskip=0/chroma_qp_offset=-2/threads=12/lookahead_threads=2/sliced_threads=0/nr=0/decimate=1/interlaced=0/bluray_compat=0/constrained_intra=0/fgo=0/bframes=15/b_pyramid=2/b_adapt=2/b_bias=0/direct=1/weightb=1/open_gop=0/weightp=2/keyint=250/keyint_min=25/scenecut=40/intra_refresh=0/rc_lookahead=60/rc=2pass/mbtree=0/bitrate=1093/ratetol=1.0/qcomp=0.60/qpmin=0: 0: 0/qpmax=69: 69: 69/qpstep=4/cplxblur=20.0/qblur=0.5/vbv_maxrate=50000/vbv_bufsize=62500/nal_hrd=none/filler=0/ip_ratio=1.40/pb_ratio=1.30/aq=1: 1.00/aq-sensitivity=10.00/aq-factor=1.00: 1.00: 1.00/aq2=0/aq3=0
    Default : Yes
    Forced : No
    Statistics Tags Issue : mkvmerge v29.0.0 (\'Like It Or Not\') 64-bit 2019-11-15 03: 06: 21/mkvmerge v4.4.0 (\'Die Wiederkehr\') сборка от Jan 3 2011 21: 40: 45 2019-11-15 03: 08: 00
    FromStats_BitRate : 1092660
    FromStats_Duration : 01: 21: 05.160000000
    FromStats_FrameCount : 121629
    FromStats_StreamSize : 664496118
    Audio
    ID : 2
    Format : AC-3
    Format/Info : Audio Coding 3
    Commercial name : Dolby Digital
    Codec ID : A_AC3
    Duration : 1 h 21 min
    Bit rate mode : Constant
    Bit rate : 192 kb/s
    Channel(s) : 2 channels
    Channel layout : L R
    Sampling rate : 48.0 kHz
    Frame rate : 31.250 FPS (1536 SPF)
    Compression mode : Lossy
    Stream size : 111 MiB (15%)
    Language : Russian
    Service kind : Complete Main
    Default : Yes
    Forced : No

    Скриншоты для ознакомления



    Все одноименные релизы в Клубе
    Время раздачи: с 08.00 до 24.00 (до появления первых 3-5 скачавших)

    Онлайн видео Болевой порог (2019) WEB



    Болевой порог (2019) WEB-DLRip [H.264] [PR]
    Рейтинг →
     (голосов: 1, оценка 5/5, голосовать можно 1 раз )

    Другие торренты по теме:

  • Болевой порог (2019) WEB-DL [H.264 / 1080p-LQ]
  • Болевой порог (2019) WEB-DLRip [H.265] [10-bit] [PR]
  • Болевой порог (2019) WEB-DL [1080p] ATV


    • Комментарии (0):

      Информация

      Информация

        Посетители, находящиеся в группе Гости, не могут оставлять комментарии в данной новости.

        ↓ Меню




        ↓ Опрос

        Вы добавили сайт в закладки?
        Да
        Нет


        Популярное

        Полицейский с Рублёвки. Новогодний беспредел 2 (2019) CamRip [AD]

        (скачиваний: 1815)
        Властелин колец: Трилогия / The Lord of the Rings: Trilogy (2001,2002,2003) BDRip [H.264] [Extended Editions] скачать через торрент бесплатно

        (скачиваний: 663)
        Властелин колец / The Lord of the Rings (2001,2002,2003) BDRip [Extended Edition] [H.264 / 1080p-LQ] [Hi10P]

        (скачиваний: 655)
        Начало / Inception (2010) BDRip [H.265 / 1080p]

        (скачиваний: 629)
        Властелин колец / The Lord of the Rings (2001,2002,2003) BDRip [1080p] [Extended Edition] [Трилогия]

        (скачиваний: 607)
        Квартирник НТВ у Маргулиса. Новогодний выпуск (31.12.2019) WEB-DL [H.264 / 1080p-LQ]

        (скачиваний: 452)
        Каникулы off-line (2018) WEBRip

        (скачиваний: 432)
        Хоббит: Трилогия / The Hobbit: Trilogy (2012, 2013, 2014) BDRip [H.265 / 1080p-LQ] [10-bit] [Расширенная версия]

        (скачиваний: 396)
        Властелин колец / The Lord of the Rings (2001,2002,2003) BDRip [1080p] [Extended Edition] [Трилогия] скачать через торрент бесплатно

        (скачиваний: 264)
        Во все тяжкие / Breaking Bad (2008-2013) BDRip [H.264 / 1080p] (сезон 1-5, серии 1-62 из 62) Кубик в Кубе, LostFilm скачать через торрент бесплатно

        (скачиваний: 252)