.
Авторизация | Регистрация
bitok.xyz
» » К счастью / Cale szczescie (2019) WEB-DLRip [MVO] [AD торрент скачать бесплатно


    К счастью / Cale szczescie (2019) WEB-DLRip [MVO] [AD торрент скачать бесплатно

    Дата: 31-12-2019, 05:00 | .torrent скачали: 0

    К счастью / Cale szczescie (2019) WEB-DLRip [MVO] [ADПроизводство: Польша/TVN
    Жанр: Комедия
    Режиссер: Томаш Конецки

    Актеры
    Рома Гонщёровска, Петр Адамчик, Максим Бальцеровский, Йоанна Лишовска, Томаш Сапрык, Мариэта Жуковская, Яцек Борусинский, Изабела Домбровска, Йоахим Лямжа, Катажина Вайда

    Описание

    В спокойной размеренной жизни музыканта симфонического оркестра, в одиночку воспитывающего десятилетнего сына, неожиданно появляется популярная телезвезда...

    Дата мировой премьеры: 8 марта 2019
    Продолжительность: 01: 44: 34
    Качество видео: WEB-DLRip
    Перевод: Многоголосый закадровый, любительский (AlphaProject)
    Субтитры: Отсутствуют
    Реклама: Присутствует баннер.
    Видео: XviD, 720x304, ~1585 Kbps
    Аудио: AC-3, 2 ch, 256 Kbps
    Общее
    Полное имя : D: NNMК счастьюCale.szczescie.2019.WEB-DLRip.avi
    Формат : AVI
    Формат/Информация : Audio Video Interleave
    Профиль формата : OpenDML
    Размер файла : 1, 35 Гбайт
    Продолжительность : 1 ч. 44 м.
    Общий поток : 1853 Кбит/сек
    Видео
    Идентификатор : 0
    Формат : MPEG-4 Visual
    Профиль формата : Advanced Simple@L5
    Настройки формата : BVOP2/Custom Matrix
    Параметр BVOP формата : 2
    Параметр QPel формата : Нет
    Параметр GMC формата : Без точки перехода
    Параметр матрицы формата : Выборочная
    Идентификатор кодека : XVID
    Идентификатор кодека/Подсказка : XviD
    Продолжительность : 1 ч. 44 м.
    Битрейт : 1585 Кбит/сек
    Ширина : 720 пикселей
    Высота : 304 пикселя
    Соотношение сторон : 2, 35: 1
    Частота кадров : 23, 976 (24000/1001) кадра/сек
    Цветовое пространство : YUV
    Субдискретизация насыщенности : 4: 2: 0
    Битовая глубина : 8 бит
    Тип развёртки : Прогрессивная
    Метод сжатия : С потерями
    Бит/(Пиксели*Кадры) : 0.302
    Размер потока : 1, 16 Гбайт (86%)
    Библиотека кодирования : XviD 1.2.1 (UTC 2008-12-04)
    Аудио
    Идентификатор : 1
    Формат : AC-3
    Формат/Информация : Audio Coding 3
    Коммерческое название : Dolby Digital
    Идентификатор кодека : 2000
    Продолжительность : 1 ч. 44 м.
    Вид битрейта : Постоянный
    Битрейт : 256 Кбит/сек
    Каналы : 2 канала
    ChannelLayout : L R
    Частота : 48, 0 КГц
    Частота кадров : 31, 250 кадров/сек (1536 SPF)
    Метод сжатия : С потерями
    Размер потока : 191 Мбайт (14%)
    Выравнивание : Соединение по промежуткам
    Продолжительность промежутка : 32 мс. (0, 77 видеокадр)
    ServiceKind/String : Complete Main

    Скриншоты для ознакомления



    Все одноименные релизы в Клубе Время раздачи: 24/7 (до появления первых 3-5 скачавших)

    Онлайн видео К счастью



    К счастью/Cale szczescie (2019) WEB-DLRip [MVO] [AD
    Рейтинг →
     (голосов: 1, оценка 4/5, голосовать можно 1 раз )

    Другие торренты по теме:

  • К счастью / Cale szczescie (2019) WEB-DLRip [H.264 / 720p-LQ] [MVO] [AD]


    • Комментарии (0):

      Информация

      Информация

        Посетители, находящиеся в группе Гости, не могут оставлять комментарии в данной новости.

        ↓ Меню




        ↓ Опрос

        Вы добавили сайт в закладки?
        Да
        Нет


        Популярное