.
Авторизация | Регистрация
bitok.xyz
» » Кто твоя бабушка, чувак / Cest quoi cette mamie! (2019) BDRip [H.264 / 1080p] торрент скачать бесплатно


    Кто твоя бабушка, чувак / Cest quoi cette mamie! (2019) BDRip [H.264 / 1080p] торрент скачать бесплатно

    Дата: 31-12-2019, 05:00 | .torrent скачали: 0

    Кто твоя бабушка, чувак / Cest quoi cette mamie! (2019) BDRip [H.264 / 1080p]Производство: Франция, Бельгия/6ter, Bonne Pioche, Centre National de la Cinématographie (CNC)
    Жанр: Комедия
    Режиссер: Габриэль Жюльен-Лаферье
    Продюсер: Ив Дарондо, Эммануэль Приу

    Актеры
    Шанталь Ладезу, Жюли Гайе, Тьерри Нёвик, Жюли Депардье, Люсьен Жан-Батист, Клаудия Тагбо, Филипп Катрин, Арие Эльмалех, Нино Киртадзе, Садио Диалло

    Описание

    Аврора наслаждается богатой жизнью в своих апартаментах на Лазурном Берегу во Франции. Вечеринки, друзья, путешествия, и самое важное — свое расписание дня. В один день дочери отправляют погостить к ней семь внуков от 6-ти до 18 лет.

    Возраст: 12+ (зрителям, достигшим 12 лет)
    Дата мировой премьеры: 2 августа 2019
    Дата российской премьеры: 21 ноября 2019
    Продолжительность: 01: 39: 20
    Качество видео: BDRip (1080p)
    Перевод: Профессиональный многоголосый (iTunes)
    Субтитры: Отсутствует
    Видео: AVC/H.264, 1920x804, ~13, 5 Mbps
    Аудио #1: AC3, 6 ch, 384 Kbps - Русский
    Аудио #2: AC3, 6 ch, 640 Kbps - Французский
    Общее
    Уникальный идентификатор : 238812834565322000288209373666480512632 (0xB3A9ADCDA853E9AD8F87E566E2645E78)
    Полное имя : D: NNMКто твоя бабушка, чувакC.est.quoi.cette.mamie.2019.BDRip.1080p.mkv
    Формат : Matroska
    Версия формата : Version 4
    Размер файла : 10, 1 Гбайт
    Продолжительность : 1 ч. 39 м.
    Общий поток : 14, 5 Мбит/сек
    Название фильма : C est Quoi Cette Mamie 2019 from селезень
    Дата кодирования : UTC 2019-12-30 01: 26: 26
    Программа кодирования : mkvmerge v40.0.0 (\'Old Town Road + Pony\') 64-bit
    Библиотека кодирования : libebml v1.3.9 + libmatroska v1.5.2
    Видео
    Идентификатор : 1
    Формат : AVC
    Формат/Информация : Advanced Video Codec
    Профиль формата : High@L4.1
    Настройки формата : CABAC/5 Ref Frames
    Параметр CABAC формата : Да
    Параметр RefFrames формата : 5 кадров
    Идентификатор кодека : V_MPEG4/ISO/AVC
    Продолжительность : 1 ч. 39 м.
    Битрейт : 13, 5 Мбит/сек
    Ширина : 1920 пикселей
    Высота : 804 пикселя
    Соотношение сторон : 2, 40: 1
    Режим частоты кадров : Постоянный
    Частота кадров : 23, 976 (24000/1001) кадра/сек
    Цветовое пространство : YUV
    Субдискретизация насыщенности : 4: 2: 0
    Битовая глубина : 8 бит
    Тип развёртки : Прогрессивная
    Бит/(Пиксели*Кадры) : 0.365
    Размер потока : 9, 36 Гбайт (93%)
    Заголовок : Encoded by seleZen
    Библиотека кодирования : x264 core 142 r2431+42 c69a006 tMod 8-bit@all X86_64
    Настройки программы : cabac=1/ref=5/deblock=1: -2: -2/analyse=0x3: 0x133/me=umh/subme=11/psy=1/fade_compensate=0.00/psy_rd=0.00: 0.00/mixed_ref=1/me_range=32/chroma_me=1/trellis=2/8x8dct=1/cqm=0/deadzone=21, 11/fast_pskip=0/chroma_qp_offset=0/threads=24/lookahead_threads=6/sliced_threads=0/nr=0/decimate=0/interlaced=0/bluray_compat=0/constrained_intra=0/fgo=0/bframes=10/b_pyramid=2/b_adapt=2/b_bias=0/direct=3/weightb=1/open_gop=0/weightp=2/keyint=240/keyint_min=23/scenecut=40/intra_refresh=0/rc_lookahead=50/rc=2pass/mbtree=0/bitrate=13500/ratetol=1.0/qcomp=0.60/qpmin=0: 0: 0/qpmax=51: 51: 51/qpstep=4/cplxblur=20.0/qblur=0.5/vbv_maxrate=50000/vbv_bufsize=62500/nal_hrd=none/filler=0/ip_ratio=1.40/pb_ratio=1.30/aq=3: 0.80/aq-sensitivity=10.00/aq-factor=1.00: 1.00: 1.00/aq2=0/aq3=0
    Язык : French
    Default : Да
    Forced : Нет
    Аудио #1
    Идентификатор : 2
    Формат : AC-3
    Формат/Информация : Audio Coding 3
    Коммерческое название : Dolby Digital
    Идентификатор кодека : A_AC3
    Продолжительность : 1 ч. 39 м.
    Вид битрейта : Постоянный
    Битрейт : 384 Кбит/сек
    Каналы : 6 каналов
    ChannelLayout : L R C LFE Ls Rs
    Частота : 48, 0 КГц
    Частота кадров : 31, 250 кадров/сек (1536 SPF)
    Метод сжатия : С потерями
    Размер потока : 273 Мбайт (3%)
    Заголовок : Dub iTunes
    Язык : Russian
    ServiceKind/String : Complete Main
    Default : Да
    Forced : Да
    Аудио #2
    Идентификатор : 3
    Формат : AC-3
    Формат/Информация : Audio Coding 3
    Коммерческое название : Dolby Digital
    Идентификатор кодека : A_AC3
    Продолжительность : 1 ч. 39 м.
    Вид битрейта : Постоянный
    Битрейт : 640 Кбит/сек
    Каналы : 6 каналов
    ChannelLayout : L R C LFE Ls Rs
    Частота : 48, 0 КГц
    Частота кадров : 31, 250 кадров/сек (1536 SPF)
    Метод сжатия : С потерями
    Размер потока : 455 Мбайт (4%)
    Заголовок : Original
    Язык : French
    ServiceKind/String : Complete Main
    Default : Нет
    Forced : Нет
    Меню
    00: 00: 00.000 : fr: Глава 01
    00: 10: 05.980 : fr: Глава 02
    00: 22: 04.532 : fr: Глава 03
    00: 32: 13.640 : fr: Глава 04
    00: 44: 13.109 : fr: Глава 05
    00: 56: 22.713 : fr: Глава 06
    01: 09: 20.948 : fr: Глава 07
    01: 22: 28.318 : fr: Глава 08
    01: 33: 26.726 : fr: Глава 09

    Скриншоты для ознакомления



    Все одноименные релизы в Клубе
    Время раздачи: 24/7 (круглосуточно) (до появления первых 3-5 скачавших)

    Онлайн видео Кто твоя бабушка, чувак



    Кто твоя бабушка, чувак/Cest quoi cette mamie! (2019) BDRip [H.264/1080p]
    Рейтинг →
     (голосов: 1, оценка 4/5, голосовать можно 1 раз )

    Другие торренты по теме:

  • Кто твоя бабушка, чувак / Cest quoi cette mamie! (2019) WEB-DL [H.264 / 1080p-LQ]
  • Кто твоя бабушка, чувак / Cest quoi cette mamie! (2019) WEB-DLRip [H.264]
  • Кто твоя бабушка, чувак / Cest quoi cette mamie! (2019) BDRip
  • Кто твоя бабушка, чувак / Cest quoi cette mamie! (2019) BDRip


    • Комментарии (0):

      Информация

      Информация

        Посетители, находящиеся в группе Гости, не могут оставлять комментарии в данной новости.

        ↓ Меню




        ↓ Опрос

        Вы добавили сайт в закладки?
        Да
        Нет


        Популярное