.
Авторизация | Регистрация
bitok.xyz
» » Перспектива / Prospect (2018) BDRip торрент скачать бесплатно


    Перспектива / Prospect (2018) BDRip торрент скачать бесплатно

    Дата: 31-12-2019, 05:00 | .torrent скачали: 0

    Перспектива / Prospect (2018) BDRipПроизводство: Канада, США/Depth of Field, Ground Control, BRON Studios
    Жанр: Фантастика, триллер, драма
    Режиссер: Кристофер Колдуэлл, Зик Эрл

    Актеры
    Софи Тэтчер, Джей Дюпласс, Педро Паскаль, Люк Питцрик, Артур Деранло, Андре Ройо, Алекс МакКоли, Даг Доусон, Криста Джонсон, Брайан Гантер

    Описание

    В надежде разбогатеть отец с дочерью отправляются на отдалённую луну, где планируют добывать драгоценные камни, сокрытые в глубине опасных лесов. Быстро выясняется, что на луне есть и другие люди, желающие поправить собственное финансовое положение. В итоге вся операция превращается в попытку выжить и сохранить свои жизни. Вынужденная сражаться не только с внешними врагами, но и с жадностью отца, девушка понимает, что она должна сама проложить себе путь к спасению.

    Рейтинг MPAA: R (лицам до 17 лет обязательно присутствие взрослого)
    Дата мировой премьеры: 10 марта 2018
    Цифровой релиз: 30 декабря 2019
    Продолжительность: 01: 40: 06
    Качество видео: BDRip
    Перевод: Дублированный (iTunes)
    Субтитры: Отсутствуют
    Видео: XviD, 704x368, ~1696 Kbps
    Аудио: AC-3, 6 ch, 384 Kbps
    Общее
    Полное имя : D: NNMПерспективаProspect.2018.BDRip.avi
    Формат : AVI
    Формат/Информация : Audio Video Interleave
    Размер файла : 1, 46 Гбайт
    Продолжительность : 1 ч. 40 м.
    Общий поток : 2089 Кбит/сек
    Программа кодирования : VirtualDubMod 1.5.10.3 |www.virtualdub-fr.org|| (build 2550/release)
    Библиотека кодирования : VirtualDubMod build 2550/release
    Видео
    Идентификатор : 0
    Формат : MPEG-4 Visual
    Профиль формата : Advanced Simple@L5
    Настройки формата : BVOP1/Custom Matrix
    Параметр BVOP формата : 1
    Параметр QPel формата : Нет
    Параметр GMC формата : Без точки перехода
    Параметр матрицы формата : Выборочная
    Идентификатор кодека : XVID
    Идентификатор кодека/Подсказка : XviD
    Продолжительность : 1 ч. 40 м.
    Битрейт : 1696 Кбит/сек
    Ширина : 704 пикселя
    Высота : 368 пикселей
    Соотношение сторон : 1, 913
    Частота кадров : 23, 976 (24000/1001) кадра/сек
    Цветовое пространство : YUV
    Субдискретизация насыщенности : 4: 2: 0
    Битовая глубина : 8 бит
    Тип развёртки : Прогрессивная
    Метод сжатия : С потерями
    Бит/(Пиксели*Кадры) : 0.273
    Размер потока : 1, 19 Гбайт (81%)
    Библиотека кодирования : XviD 73
    Аудио
    Идентификатор : 1
    Формат : AC-3
    Формат/Информация : Audio Coding 3
    Коммерческое название : Dolby Digital
    Идентификатор кодека : 2000
    Продолжительность : 1 ч. 40 м.
    Вид битрейта : Постоянный
    Битрейт : 384 Кбит/сек
    Каналы : 6 каналов
    ChannelLayout : L R C LFE Ls Rs
    Частота : 48, 0 КГц
    Частота кадров : 31, 250 кадров/сек (1536 SPF)
    Метод сжатия : С потерями
    Размер потока : 275 Мбайт (18%)
    Выравнивание : Разделение по промежуткам
    Продолжительность промежутка : 42 мс. (1, 00 видеокадр)
    Время предзагрузки промежутка : 500 мс.
    ServiceKind/String : Complete Main

    Скриншоты для ознакомления



    Все одноименные релизы в Клубе Время раздачи: 24/7 (до появления первых 3-5 скачавших)

    Онлайн видео Перспектива



    Перспектива/Prospect (2018) BDRip
    Рейтинг →
     (голосов: 1, оценка 5/5, голосовать можно 1 раз )

    Другие торренты по теме:

  • Перспектива / Prospect (2018) WEB-DLRip [MVO] [AD]
  • Перспектива / Prospect (2018) WEB-DLRip [H.264 / 1080p-LQ] [MVO]
  • Перспектива / Prospect (2018) WEB-DLRip [H.264 / 720p-LQ]
  • Перспектива / Prospect (2018) WEB-DL [H.264 / 1080p-LQ] [MVO]
  • Перспектива / Prospect (2018) UHD BDRip [H.265 / 2160p] [4K, HDR, 10-bit]
  • Перспектива / Prospect (2018) BDRip [H.264 / 1080p]
  • Перспектива / Prospect (2018) BDRip [H.264]
  • Перспектива / Prospect (2018) BDRip [H.264 / 720p]


    • Комментарии (0):

      Информация

      Информация

        Посетители, находящиеся в группе Гости, не могут оставлять комментарии в данной новости.

        ↓ Меню




        ↓ Опрос

        Вы добавили сайт в закладки?
        Да
        Нет


        Популярное