.
Авторизация | Регистрация
bitok.xyz
» » Перспектива / Prospect (2018) BDRip [H.264 / 720p] торрент скачать бесплатно


    Перспектива / Prospect (2018) BDRip [H.264 / 720p] торрент скачать бесплатно

    Дата: 31-12-2019, 05:00 | .torrent скачали: 0

    Перспектива / Prospect (2018) BDRip [H.264 / 720p]Производство: Канада, США/Depth of Field, Ground Control, BRON Studios
    Жанр: Фантастика, триллер, драма
    Режиссер: Кристофер Колдуэлл, Зик Эрл

    Актеры
    Софи Тэтчер, Джей Дюпласс, Педро Паскаль, Люк Питцрик, Артур Деранло, Андре Ройо, Алекс МакКоли, Даг Доусон, Криста Джонсон, Брайан Гантер

    Описание

    В надежде разбогатеть отец с дочерью отправляются на отдалённую луну, где планируют добывать драгоценные камни, сокрытые в глубине опасных лесов. Быстро выясняется, что на луне есть и другие люди, желающие поправить собственное финансовое положение. В итоге вся операция превращается в попытку выжить и сохранить свои жизни. Вынужденная сражаться не только с внешними врагами, но и с жадностью отца, девушка понимает, что она должна сама проложить себе путь к спасению.

    Рейтинг MPAA: R (лицам до 17 лет обязательно присутствие взрослого)
    Дата мировой премьеры: 10 марта 2018
    Цифровой релиз: 30 декабря 2019
    Продолжительность: 01: 39: 51
    Качество видео: BDRip (720p)
    Перевод: Дублированный (iTunes)
    Субтитры: Русские (Full), английские (Full, SDH)
    Видео: AVC/H.264, 1280x676, ~6300 Kbps
    Аудио #1: AC3, 6 ch, 384 Kbps - Русский
    Аудио #2: AC3, 6 ch, 640 Kbps - Английский
    Общее
    Уникальный идентификатор : 295646715442965989776605143222365258469 (0xDE6B7C791E8B462E42E07563A39102E5)
    Полное имя : D: NNMПерспективаProspect.2018.BDRip.720p.mkv
    Формат : Matroska
    Версия формата : Version 4
    Размер файла : 5, 10 Гбайт
    Продолжительность : 1 ч. 39 м.
    Общий поток : 7310 Кбит/сек
    Название фильма : Prospect 2018 from селезень
    Дата кодирования : UTC 2019-12-29 22: 13: 00
    Программа кодирования : mkvmerge v40.0.0 (\'Old Town Road + Pony\') 64-bit
    Библиотека кодирования : libebml v1.3.9 + libmatroska v1.5.2
    Видео
    Идентификатор : 1
    Формат : AVC
    Формат/Информация : Advanced Video Codec
    Профиль формата : High@L4.1
    Настройки формата : CABAC/9 Ref Frames
    Параметр CABAC формата : Да
    Параметр RefFrames формата : 9 кадров
    Идентификатор кодека : V_MPEG4/ISO/AVC
    Продолжительность : 1 ч. 39 м.
    Битрейт : 6300 Кбит/сек
    Ширина : 1280 пикселей
    Высота : 676 пикселей
    Соотношение сторон : 1, 893
    Режим частоты кадров : Постоянный
    Частота кадров : 23, 976 (24000/1001) кадра/сек
    Цветовое пространство : YUV
    Субдискретизация насыщенности : 4: 2: 0
    Битовая глубина : 8 бит
    Тип развёртки : Прогрессивная
    Бит/(Пиксели*Кадры) : 0.304
    Размер потока : 4, 38 Гбайт (86%)
    Заголовок : LoRD
    Библиотека кодирования : x264 core 158 r2984+49 ~ LoRD
    Настройки программы : cabac=1/ref=9/deblock=1: -3: -3/analyse=0x3: 0x133/me=umh/subme=10/psy=1/fade_compensate=0.00/psy_rd=1.00: 0.00/mixed_ref=1/me_range=32/chroma_me=1/trellis=2/8x8dct=1/cqm=0/deadzone=21, 11/fast_pskip=0/chroma_qp_offset=-2/threads=12/lookahead_threads=2/sliced_threads=0/nr=0/decimate=0/interlaced=0/bluray_compat=0/constrained_intra=0/fgo=0/bframes=8/b_pyramid=2/b_adapt=2/b_bias=0/direct=3/weightb=1/open_gop=0/weightp=2/keyint=250/keyint_min=23/scenecut=40/intra_refresh=0/rc_lookahead=60/rc=2pass/mbtree=0/bitrate=6300/ratetol=1.0/qcomp=0.70/qpmin=0: 0: 0/qpmax=69: 69: 69/qpstep=4/cplxblur=20.0/qblur=0.5/vbv_maxrate=50000/vbv_bufsize=62500/nal_hrd=none/filler=0/ip_ratio=1.25/pb_ratio=1.25/aq=3: 0.90/aq-sensitivity=10.00/aq-factor=1.00: 1.00: 1.00/aq2=0/aq3=0
    Язык : English
    Default : Да
    Forced : Нет
    Аудио #1
    Идентификатор : 2
    Формат : AC-3
    Формат/Информация : Audio Coding 3
    Коммерческое название : Dolby Digital
    Идентификатор кодека : A_AC3
    Продолжительность : 1 ч. 39 м.
    Вид битрейта : Постоянный
    Битрейт : 384 Кбит/сек
    Каналы : 6 каналов
    ChannelLayout : L R C LFE Ls Rs
    Частота : 48, 0 КГц
    Частота кадров : 31, 250 кадров/сек (1536 SPF)
    Метод сжатия : С потерями
    Размер потока : 274 Мбайт (5%)
    Заголовок : iTunes
    Язык : Russian
    ServiceKind/String : Complete Main
    Default : Да
    Forced : Да
    Аудио #2
    Идентификатор : 3
    Формат : AC-3
    Формат/Информация : Audio Coding 3
    Коммерческое название : Dolby Digital
    Идентификатор кодека : A_AC3
    Продолжительность : 1 ч. 39 м.
    Вид битрейта : Постоянный
    Битрейт : 640 Кбит/сек
    Каналы : 6 каналов
    ChannelLayout : L R C LFE Ls Rs
    Частота : 48, 0 КГц
    Частота кадров : 31, 250 кадров/сек (1536 SPF)
    Метод сжатия : С потерями
    Размер потока : 457 Мбайт (9%)
    Заголовок : Original
    Язык : English
    ServiceKind/String : Complete Main
    Default : Нет
    Forced : Нет
    Текст #1
    Идентификатор : 4
    Формат : UTF-8
    Идентификатор кодека : S_TEXT/UTF8
    Идентификатор кодека/Информация : UTF-8 Plain Text
    Продолжительность : 1 ч. 28 м.
    Битрейт : 51 бит/сек
    ElementCount : 663
    Размер потока : 33, 3 Кбайт (0%)
    Заголовок : Full
    Язык : Russian
    Default : Нет
    Forced : Нет
    Текст #2
    Идентификатор : 5
    Формат : UTF-8
    Идентификатор кодека : S_TEXT/UTF8
    Идентификатор кодека/Информация : UTF-8 Plain Text
    Продолжительность : 1 ч. 38 м.
    Битрейт : 32 бит/сек
    ElementCount : 968
    Размер потока : 23, 6 Кбайт (0%)
    Заголовок : Full
    Язык : English
    Default : Нет
    Forced : Нет
    Текст #3
    Идентификатор : 6
    Формат : UTF-8
    Идентификатор кодека : S_TEXT/UTF8
    Идентификатор кодека/Информация : UTF-8 Plain Text
    Продолжительность : 1 ч. 38 м.
    Битрейт : 44 бит/сек
    ElementCount : 1417
    Размер потока : 31, 9 Кбайт (0%)
    Заголовок : SDH
    Язык : English
    Default : Нет
    Forced : Нет
    Меню
    00: 00: 00.000 : en: 00: 00: 00.000
    00: 07: 43.922 : en: 00: 07: 43.922
    00: 13: 02.532 : en: 00: 13: 02.532
    00: 20: 54.795 : en: 00: 20: 54.795
    00: 27: 59.845 : en: 00: 27: 59.845
    00: 35: 11.568 : en: 00: 35: 11.568
    00: 46: 54.061 : en: 00: 46: 54.061
    00: 54: 41.737 : en: 00: 54: 41.737
    01: 02: 19.569 : en: 01: 02: 19.569
    01: 12: 29.053 : en: 01: 12: 29.053
    01: 20: 09.304 : en: 01: 20: 09.304
    01: 28: 26.968 : en: 01: 28: 26.968

    Скриншоты для ознакомления



    Все одноименные релизы в Клубе Время раздачи: 24/7 (до появления первых 3-5 скачавших)

    Онлайн видео Перспектива



    Перспектива/Prospect (2018) BDRip [H.264/720p]
    Рейтинг →
     (голосов: 1, оценка 5/5, голосовать можно 1 раз )

    Другие торренты по теме:

  • Перспектива / Prospect (2018) WEB-DLRip [MVO] [AD]
  • Перспектива / Prospect (2018) WEB-DLRip [H.264 / 1080p-LQ] [MVO]
  • Перспектива / Prospect (2018) WEB-DLRip [H.264 / 720p-LQ]
  • Перспектива / Prospect (2018) WEB-DL [H.264 / 1080p-LQ] [MVO]
  • Перспектива / Prospect (2018) UHD BDRip [H.265 / 2160p] [4K, HDR, 10-bit]
  • Перспектива / Prospect (2018) BDRip [H.264 / 1080p]
  • Перспектива / Prospect (2018) BDRip [H.264]
  • Перспектива / Prospect (2018) BDRip


    • Комментарии (0):

      Информация

      Информация

        Посетители, находящиеся в группе Гости, не могут оставлять комментарии в данной новости.

        ↓ Меню




        ↓ Опрос

        Вы добавили сайт в закладки?
        Да
        Нет


        Популярное

        Полицейский с Рублёвки. Новогодний беспредел 2 (2019) CamRip [AD]

        (скачиваний: 2276)
        Властелин колец: Трилогия / The Lord of the Rings: Trilogy (2001,2002,2003) BDRip [H.264] [Extended Editions] скачать через торрент бесплатно

        (скачиваний: 672)
        Властелин колец / The Lord of the Rings (2001,2002,2003) BDRip [Extended Edition] [H.264 / 1080p-LQ] [Hi10P]

        (скачиваний: 661)
        Начало / Inception (2010) BDRip [H.265 / 1080p]

        (скачиваний: 642)
        Властелин колец / The Lord of the Rings (2001,2002,2003) BDRip [1080p] [Extended Edition] [Трилогия]

        (скачиваний: 608)
        Квартирник НТВ у Маргулиса. Новогодний выпуск (31.12.2019) WEB-DL [H.264 / 1080p-LQ]

        (скачиваний: 456)
        Каникулы off-line (2018) WEBRip

        (скачиваний: 438)
        Хоббит: Трилогия / The Hobbit: Trilogy (2012, 2013, 2014) BDRip [H.265 / 1080p-LQ] [10-bit] [Расширенная версия]

        (скачиваний: 398)
        Властелин колец / The Lord of the Rings (2001,2002,2003) BDRip [1080p] [Extended Edition] [Трилогия] скачать через торрент бесплатно

        (скачиваний: 277)
        Во все тяжкие / Breaking Bad (2008-2013) BDRip [H.264 / 1080p] (сезон 1-5, серии 1-62 из 62) Кубик в Кубе, LostFilm скачать через торрент бесплатно

        (скачиваний: 256)