.
Авторизация | Регистрация
bitok.xyz
» » Дикки Робертс: звездный ребенок / Dickie roberts: former child star (2003) WEB-DL [H.264 / 1080p] торрент скачать бесплатно


    Дикки Робертс: звездный ребенок / Dickie roberts: former child star (2003) WEB-DL [H.264 / 1080p] торрент скачать бесплатно

    Дата: 31-12-2019, 05:00 | .torrent скачали: 0

    Дикки Робертс: звездный ребенок / Dickie roberts: former child star (2003) WEB-DL [H.264 / 1080p]Производство: США, Happy Madison Productions, Paramount Pictures
    Жанр: комедия
    Режиссер: Сэм Уэйсмэн

    Актеры
    Дэвид Спейд, Мэри МакКормак, Крэйг Бирко, Скотт Терра, Дженна Бойд, Джон Фарли, Бобби Слэйтон, Майкл Баффер, Фред Вульф, Алисса Милано

    Описание

    Бывший телезвездой в юном возрасте, 35-летний Дикки Рибертс теперь работает на автостоянке, но никак не может забыть о вкусе славы. Отчаянное желание вернуться на экран приводит его на пробы к знаменитому режиссеру, но тут оказывается, что бывший звездный ребенок не годится на роль обычного парня! Что же такое - быть таким, как все? Чтобы узнать об этом, Дикки находит типичную семью и платит ей за его... усыновление. Он хочет вновь пережить детство, но уже нормальное, без звездности. Однако стоит ему стать членом семьи Финни, обыденностью в их доме больше и не пахнет!

    Возраст: 0+ (для любой зрительской аудитории)
    Рейтинг MPAA: PG-13 (детям до 13 лет просмотр нежелателен)
    Релиз от: BLUEBIRD by Avanpost12
    Продолжительность: 01: 38: 24
    Качество видео: WEB-DL Amazon
    Перевод: Многоголосый профессиональный
    Субтитры: английские
    Видео: H.264/AVC, 1920x800, 13.6 Mbps
    Аудио 1: AC3, 5.1 ch, 384 kbps - русский (MVO)
    Аудио 2: Е-AC3, 5.1 ch, 640 kbps - английский
    Общее
    Уникальный идентификатор : 208807534241759800997022485092723573731 (0x9D16DE47A9AA2C5D9700441B77FBC3E3)
    Полное имя : Dickie.Roberts.Former.Child.Star.2003.1080p.Amazon.WEB-DL.DD5.1. Avanpost12-BLUEBIRD.mkv
    Формат : Matroska
    Версия формата : Version 2
    Размер файла : 10, 3 Гбайт
    Продолжительность : 1 ч. 38 м.
    Общий поток : 15, 0 Мбит/сек
    Дата кодирования : UTC 2019-11-30 20: 12: 32
    Программа кодирования : mkvmerge v7.8.0 (\'River Man\') 32bit built on Apr 3 2015 12: 11: 22
    Библиотека кодирования : libebml v1.3.1 + libmatroska v1.4.2
    Видео
    Идентификатор : 1
    Формат : AVC
    Формат/Информация : Advanced Video Codec
    Профиль формата : High@L4
    Параметр CABAC формата : Да
    Параметр ReFrames формата : 4 кадра
    Идентификатор кодека : V_MPEG4/ISO/AVC
    Продолжительность : 1 ч. 38 м.
    Битрейт : 13, 6 Мбит/сек
    Ширина : 1920 пикселей
    Высота : 800 пикселей
    Соотношение сторон : 2, 40: 1
    Режим частоты кадров : Постоянный
    Частота кадров : 23, 976 (24000/1001) кадра/сек
    Цветовое пространство : YUV
    Субдискретизация насыщенности : 4: 2: 0
    Битовая глубина : 8 бит
    Тип развёртки : Прогрессивная
    Бит/(Пиксели*Кадры) : 0.370
    Размер потока : 9, 38 Гбайт (91%)
    Заголовок : Release for BLUEBIRD by Avanpost12
    Язык : English
    Default : Да
    Forced : Нет
    Цветовой диапазон : Limited
    Основные цвета : BT.709
    Характеристики трансфера : BT.709
    Коэффициенты матрицы : BT.709
    Аудио #1
    Идентификатор : 2
    Формат : AC-3
    Формат/Информация : Audio Coding 3
    Расширение режима : CM (complete main)
    Параметр Endianness формата : Big
    Идентификатор кодека : A_AC3
    Продолжительность : 1 ч. 38 м.
    Вид битрейта : Постоянный
    Битрейт : 384 Кбит/сек
    Каналы : 6 каналов
    Расположение каналов : Front: L C R, Side: L R, LFE
    Частота : 48, 0 КГц
    Частота кадров : 31, 250 кадров/сек (1536 spf)
    Битовая глубина : 16 бит
    Метод сжатия : С потерями
    Размер потока : 270 Мбайт (3%)
    Заголовок : MVO
    Язык : Russian
    Default : Да
    Forced : Нет
    Аудио #2
    Идентификатор : 3
    Формат : E-AC-3
    Формат/Информация : Enhanced Audio Coding 3
    Параметр Endianness формата : Big
    Идентификатор кодека : A_EAC3
    Продолжительность : 1 ч. 38 м.
    Вид битрейта : Постоянный
    Битрейт : 640 Кбит/сек
    Каналы : 6 каналов
    Расположение каналов : Front: L C R, Side: L R, LFE
    Частота : 48, 0 КГц
    Частота кадров : 187, 500 кадров/сек (256 spf)
    Метод сжатия : С потерями
    Размер потока : 450 Мбайт (4%)
    Заголовок : original
    Язык : English
    Default : Нет
    Forced : Нет
    Текст
    Идентификатор : 4
    Формат : UTF-8
    Идентификатор кодека : S_TEXT/UTF8
    Идентификатор кодека/Информация : UTF-8 Plain Text
    Заголовок : SDH
    Язык : English
    Default : Нет
    Forced : Нет
    Меню
    00: 00: 00.000 : en: Nucking Futs!
    00: 05: 33.000 : en: Desperate Dickie
    00: 09: 07.000 : en: Bending The Rules
    00: 13: 41.000 : en: Poker Night
    00: 17: 27.000 : en: To Be A Star Again
    00: 22: 19.000 : en: Family For Hire
    00: 27: 37.000 : en: Stranger Danger Moves In
    00: 33: 21.000 : en: Normal Crap
    00: 36: 20.000 : en: Tree House Training
    00: 43: 00.000 : en: Slipping And Sliding
    00: 47: 30.000 : en: Part Of The Family
    00: 52: 28.000 : en: Dickie To The Rescue
    01: 01: 24.000 : en: Fitting In
    01: 06: 36.000 : en: Tryouts
    01: 10: 24.000 : en: Cindy\'s Back
    01: 17: 02.000 : en: Sidney Comes Through
    01: 24: 18.000 : en: The Audition
    01: 32: 18.000 : en: We Love Being Child Stars

    Скриншоты для ознакомления



    Все одноименные релизы в Клубе
    Время раздачи: с 11: 00 до 01: 00 (до появления первых 3-5 скачавших)

    Онлайн видео Дикки Робертс: звездный ребенок



    Дикки Робертс: звездный ребенок/Dickie roberts: former child star (2003) WEB-DL [H.264/1080p]
    Рейтинг →
     (голосов: 1, оценка 3/5, голосовать можно 1 раз )

    Другие торренты по теме:



      Комментарии (0):

      Информация

      Информация

        Посетители, находящиеся в группе Гости, не могут оставлять комментарии в данной новости.

        ↓ Меню




        ↓ Опрос

        Вы добавили сайт в закладки?
        Да
        Нет


        Популярное