.
Авторизация | Регистрация
bitok.xyz
» » Экстремалы / Extreme Ops (2002) WEB-DLRip [H.264 / 720p] торрент скачать бесплатно


    Экстремалы / Extreme Ops (2002) WEB-DLRip [H.264 / 720p] торрент скачать бесплатно

    Дата: 31-12-2019, 05:00 | .torrent скачали: 0

    Экстремалы / Extreme Ops (2002) WEB-DLRip [H.264 / 720p]Производство: Великобритания, Германия, Люксембург/Paramount Pictures, MDP Worldwide, Diamant Cohen Productions
    Жанр: боевик, триллер, приключения
    Режиссер: Кристиан Дюгей

    Актеры
    Девон Сава, Бриджит Уилсон, Руперт Грейвз, Руфус Сьюэлл, Хайно Ферх, Джо Эбсолом, Яна Палласке, Жан-Пьер Кастальди, Лилиана Коморовска, Клаус Лёвич

    Описание

    Лишь горстка людей в мире способна на сноубордах уйти от сорвавшейся лавины и заснять все это для дорогостоящей рекламы. Съемочная группа набирается из отчаянных профи своего дела и отправляется высоко в Альпы, чтобы снять этот рискованный трюк. Но они оказались не одни на этих заснеженных вершинах – в объектив кинокамеры попадает международный преступник. Теперь, съемки – это самое легкое из того, что предстоит любителям экстремального спорта. Их всего шестеро, а единственное их оружие – это скорость...

    Возраст: 12+ (зрителям, достигшим 12 лет)
    Рейтинг MPAA: PG-13 (детям до 13 лет просмотр нежелателен)
    Релиз от: k.e.n MegaPeer
    Продолжительность: 01: 33: 36
    Качество видео: WEB-DLRip 720p
    Перевод: Дублированный, профессиональный многоголосый
    Субтитры: Русские, английские
    Видео: AVC, 1280x720, 23.976 fps, 5 536 kbps
    Аудио #1: AC3, 48 kHz, 6 ch, 384 kbps - Русский, DUB
    Аудио #2: AC3, 48 kHz, 6 ch, 384 kbps - Русский, MVO
    Аудио #3: AC3, 48 kHz, 6 ch, 384 kbps - Английский, Original
    x264 info: frame I: 987 Avg QP: 16.34 size: 99317
    x264 info: frame P: 37136 Avg QP: 18.29 size: 47297
    x264 info: frame B: 96548 Avg QP: 20.20 size: 21033
    Format : Matroska
    Format version : Version 2
    File size : 4.37 GiB
    Duration : 1 h 33 min
    Overall bit rate : 6 688 kb/s
    Encoded date : UTC 2019-12-30 04: 04: 08
    Writing application : mkvmerge v5.3.0 (\'I could have danced\') built on Feb 9 2012 10: 38: 07
    Writing library : libebml v1.2.3 + libmatroska v1.3.0
    Cover : Yes
    Attachments : cover.jpg
    Video
    ID : 1
    Format : AVC
    Format/Info : Advanced Video Codec
    Format profile : High@L4.1
    Format settings : CABAC/9 Ref Frames
    Format settings, CABAC : Yes
    Format settings, ReFrames : 9 frames
    Codec ID : V_MPEG4/ISO/AVC
    Duration : 1 h 33 min
    Bit rate : 5 536 kb/s
    Width : 1 280 pixels
    Height : 720 pixels
    Display aspect ratio : 16: 9
    Frame rate mode : Constant
    Frame rate : 23.976 (24000/1001) FPS
    Color space : YUV
    Chroma subsampling : 4: 2: 0
    Bit depth : 8 bits
    Scan type : Progressive
    Bits/(Pixel*Frame) : 0.251
    Stream size : 3.53 GiB (81%)
    Writing library : x264 core 158 r2984 3759fcb
    Encoding settings : cabac=1/ref=9/deblock=1: -3: -3/analyse=0x3: 0x133/me=umh/subme=11/psy=1/psy_rd=1.00: 0.00/mixed_ref=1/me_range=32/chroma_me=1/trellis=2/8x8dct=1/cqm=0/deadzone=21, 11/fast_pskip=0/chroma_qp_offset=-2/threads=12/lookahead_threads=3/sliced_threads=0/nr=0/decimate=0/interlaced=0/bluray_compat=0/constrained_intra=0/bframes=11/b_pyramid=2/b_adapt=2/b_bias=0/direct=3/weightb=1/open_gop=0/weightp=2/keyint=240/keyint_min=23/scenecut=40/intra_refresh=0/rc_lookahead=60/rc=2pass/mbtree=0/bitrate=5536/ratetol=1.0/qcomp=0.70/qpmin=0/qpmax=69/qpstep=4/cplxblur=20.0/qblur=0.5/vbv_maxrate=50000/vbv_bufsize=62500/nal_hrd=none/filler=0/ip_ratio=1.30/pb_ratio=1.30/aq=3: 0.80
    Language : English
    Default : Yes
    Forced : No
    Color range : Limited
    Color primaries : BT.709
    Transfer characteristics : BT.709
    Matrix coefficients : BT.709
    Audio #1
    ID : 2
    Format : AC-3
    Format/Info : Audio Coding 3
    Commercial name : Dolby Digital
    Codec ID : A_AC3
    Duration : 1 h 33 min
    Bit rate mode : Constant
    Bit rate : 384 kb/s
    Channel(s) : 6 channels
    Channel layout : L R C LFE Ls Rs
    Sampling rate : 48.0 kHz
    Frame rate : 31.250 FPS (1536 SPF)
    Bit depth : 16 bits
    Compression mode : Lossy
    Stream size : 257 MiB (6%)
    Title : DUB
    Language : Russian
    Service kind : Complete Main
    Default : Yes
    Forced : No
    Audio #2
    ID : 3
    Format : AC-3
    Format/Info : Audio Coding 3
    Commercial name : Dolby Digital
    Codec ID : A_AC3
    Duration : 1 h 33 min
    Bit rate mode : Constant
    Bit rate : 384 kb/s
    Channel(s) : 6 channels
    Channel layout : L R C LFE Ls Rs
    Sampling rate : 48.0 kHz
    Frame rate : 31.250 FPS (1536 SPF)
    Bit depth : 16 bits
    Compression mode : Lossy
    Stream size : 257 MiB (6%)
    Title : MVO
    Language : Russian
    Service kind : Complete Main
    Default : No
    Forced : No
    Audio #3
    ID : 4
    Format : AC-3
    Format/Info : Audio Coding 3
    Commercial name : Dolby Digital
    Codec ID : A_AC3
    Duration : 1 h 33 min
    Bit rate mode : Constant
    Bit rate : 384 kb/s
    Channel(s) : 6 channels
    Channel layout : L R C LFE Ls Rs
    Sampling rate : 48.0 kHz
    Frame rate : 31.250 FPS (1536 SPF)
    Bit depth : 16 bits
    Compression mode : Lossy
    Stream size : 257 MiB (6%)
    Title : Original
    Language : English
    Service kind : Complete Main
    Default : No
    Forced : No
    Text #1
    ID : 5
    Format : UTF-8
    Codec ID : S_TEXT/UTF8
    Codec ID/Info : UTF-8 Plain Text
    Language : Russian
    Default : No
    Forced : No
    Text #2
    ID : 6
    Format : UTF-8
    Codec ID : S_TEXT/UTF8
    Codec ID/Info : UTF-8 Plain Text
    Title : SDH, Amazon
    Language : English
    Default : No
    Forced : No
    Menu
    00: 00: 00.000 : : Р“Рава 01
    00: 07: 30.000 : : Р“Рава 02
    00: 15: 00.000 : : Р“Рава 03
    00: 22: 30.000 : : Р“Рава 04
    00: 30: 00.000 : : Р“Рава 05
    00: 37: 30.000 : : Р“Рава 06
    00: 45: 00.000 : : Р“Рава 07
    00: 52: 30.000 : : Р“Рава 08
    01: 00: 00.000 : : Р“Рава 09
    01: 07: 30.000 : : Р“Рава 10
    01: 15: 00.000 : : Р“Рава 11
    01: 22: 30.000 : : Р“Рава 12
    01: 30: 00.000 : : Р“Рава 13

    Скриншоты для ознакомления



    Все одноименные релизы в Клубе
    Время раздачи: с 23: 00 до 8: 30 (до появления первых 3-5 скачавших)

    Онлайн видео Экстремалы



    Экстремалы/Extreme Ops (2002) WEB-DLRip [H.264/720p]
    Рейтинг →
     (голосов: 1, оценка 3/5, голосовать можно 1 раз )

    Другие торренты по теме:

  • Экстремалы / Extreme Ops (2002) DVDRip [H.264]
  • NGW: Малыши-экстремалы / Extreme babies animal (2016) HDTV [H.264 / 1080i-LQ] (Сезон 1, серии 1-6 из 6)


    • Комментарии (0):

      Информация

      Информация

        Посетители, находящиеся в группе Гости, не могут оставлять комментарии в данной новости.

        ↓ Меню




        ↓ Опрос

        Вы добавили сайт в закладки?
        Да
        Нет


        Популярное