.
Авторизация | Регистрация
bitok.xyz
» » Извне (Падение, Хищники-инопланетяне) / Alien Predator / The Falling / Mutant II / Cosmos Mortal (1985) BDRemux [H.264 / 1080p] торрент скачать бесплатно


    Извне (Падение, Хищники-инопланетяне) / Alien Predator / The Falling / Mutant II / Cosmos Mortal (1985) BDRemux [H.264 / 1080p] торрент скачать бесплатно

    Дата: 31-12-2019, 05:00 | .torrent скачали: 0

    Извне (Падение, Хищники-инопланетяне) / Alien Predator / The Falling / Mutant II / Cosmos Mortal (1985) BDRemux [H.264 / 1080p]Производство: США, Испания/Continental Motion Pictures, MC Films, Royal Films
    Жанр: Ужасы, Фантастика, Триллер, Драма
    Режиссер: Деран Сарафян
    Продюсер: Карлос Ауред, Деран Сарафян, Эдуардо Россофф

    Актеры
    Деннис Кристофер, Мартин Хьюит, Линн-Холли Джонсон, Луис Прендес, Дж. Боссо, Юсаф Бохари, Иоланда Паломо, Кристина Огустен, Кристина Сан Хуан, Пабло Гарсия

    Описание

    Находясь на отдыхе в Испании, трое друзей попадают в небольшую деревушку, с населением которой происходят странные и жуткие вещи — её жители начинают страдать от обильного кровотечения, после чего в течение двух суток их тела и вовсе превращаются в кровавое месиво. Выясняется, что несколько лет назад здесь произошло крушение космической станции, на которой проводились эксперименты в области вирусологии.

    Рейтинг MPAA: R (лицам до 17 лет обязательно присутствие взрослого)
    Релиз от: R.G. Goldenshara
    Продолжительность: 01: 30: 42
    Качество видео: BDRemux 1080p
    Перевод: Двухголосый профессиональный, Авторский
    Субтитры: Английские (Full + SDH)
    Видео: AVC/H.264, 1920x1080 (16: 9), ~26.4 Mbps, 23.976 fps
    Аудио #1: AC3, 2 ch, 48.0 KHz, 192 kbps | Русский - (DVO НТВ+)
    Аудио #2: AC3, 2 ch, 48.0 KHz, 192 kbps | Русский - (AVO В.Котов)
    Аудио #3: DTS-HD MA, 2 ch, 48.0 KHz, 1612 kbps | Английский
    Аудио #4: DTS-HD MA, 2 ch, 48.0 KHz, 1583 kbps | Английский - (Комментарии)
    General
    Unique ID : 203152639082677030124652972680779773364 (0x98D5C66C3C9CEF9E87DABEA98E19B5B4)
    Complete name : E: Мои рипыИзвне.1985.BDRemux.1080p.R.G. Goldenshara.mkv
    Format : Matroska
    Format version : Version 4/Version 2
    File size : 19.0 GiB
    Duration : 1h 30mn
    Overall bit rate mode : Variable
    Overall bit rate : 30.0 Mbps
    Encoded date : UTC 2019-12-30 10: 34: 46
    Writing application : mkvmerge v6.8.0 (\'Theme for Great Cities\') 64bit built on Mar 2 2014 21: 34: 26
    Writing library : libebml v1.3.0 + libmatroska v1.4.1
    Video
    ID : 1
    Format : AVC
    Format/Info : Advanced Video Codec
    Format profile : High@L4.1
    Format settings, CABAC : Yes
    Format settings, ReFrames : 4 frames
    Codec ID : V_MPEG4/ISO/AVC
    Duration : 1h 30mn
    Bit rate mode : Variable
    Bit rate : 25.9 Mbps
    Maximum bit rate : 35.0 Mbps
    Width : 1 920 pixels
    Height : 1 080 pixels
    Display aspect ratio : 16: 9
    Frame rate mode : Constant
    Frame rate : 23.976 fps
    Color space : YUV
    Chroma subsampling : 4: 2: 0
    Bit depth : 8 bits
    Scan type : Progressive
    Bits/(Pixel*Frame) : 0.520
    Stream size : 16.4 GiB (86%)
    Language : English
    Default : Yes
    Forced : No
    Audio #1
    ID : 2
    Format : AC-3
    Format/Info : Audio Coding 3
    Mode extension : CM (complete main)
    Format settings, Endianness : Big
    Codec ID : A_AC3
    Duration : 1h 30mn
    Bit rate mode : Constant
    Bit rate : 192 Kbps
    Channel(s) : 2 channels
    Channel positions : Front: L R
    Sampling rate : 48.0 KHz
    Bit depth : 16 bits
    Compression mode : Lossy
    Stream size : 125 MiB (1%)
    Title : Русский ПД (НТВ+)
    Language : Russian
    Default : Yes
    Forced : No
    Audio #2
    ID : 3
    Format : AC-3
    Format/Info : Audio Coding 3
    Mode extension : CM (complete main)
    Format settings, Endianness : Big
    Codec ID : A_AC3
    Duration : 1h 30mn
    Bit rate mode : Constant
    Bit rate : 192 Kbps
    Channel(s) : 2 channels
    Channel positions : Front: L R
    Sampling rate : 48.0 KHz
    Bit depth : 16 bits
    Compression mode : Lossy
    Stream size : 125 MiB (1%)
    Title : Русский АО (В.Котов)
    Language : Russian
    Default : No
    Forced : No
    Audio #3
    ID : 4
    Format : DTS
    Format/Info : Digital Theater Systems
    Format profile : MA/Core
    Codec ID : A_DTS
    Duration : 1h 30mn
    Bit rate mode : Variable
    Bit rate : 1 558 Kbps/1 510 Kbps
    Channel(s) : 2 channels
    Channel positions : Front: L R
    Sampling rate : 48.0 KHz
    Bit depth : 24 bits
    Compression mode : Lossless/Lossy
    Language : English
    Default : No
    Forced : No
    Audio #4
    ID : 5
    Format : DTS
    Format/Info : Digital Theater Systems
    Format profile : MA/Core
    Codec ID : A_DTS
    Duration : 1h 30mn
    Bit rate mode : Variable
    Bit rate : 1 558 Kbps/1 510 Kbps
    Channel(s) : 2 channels
    Channel positions : Front: L R
    Sampling rate : 48.0 KHz
    Bit depth : 24 bits
    Compression mode : Lossless/Lossy
    Title : Комментарии
    Language : English
    Default : No
    Forced : No
    Text #1
    ID : 6
    Format : UTF-8
    Codec ID : S_TEXT/UTF8
    Codec ID/Info : UTF-8 Plain Text
    Title : Full
    Language : English
    Default : No
    Forced : No
    Text #2
    ID : 7
    Format : UTF-8
    Codec ID : S_TEXT/UTF8
    Codec ID/Info : UTF-8 Plain Text
    Title : SDH
    Language : English
    Default : No
    Forced : No
    Menu
    00: 00: 00.000 : en: Chapter 1
    00: 08: 28.466 : en: Chapter 2
    00: 17: 11.572 : en: Chapter 3
    00: 24: 21.626 : en: Chapter 4
    00: 30: 01.758 : en: Chapter 5
    00: 37: 36.671 : en: Chapter 6
    00: 45: 20.259 : en: Chapter 7
    00: 53: 07.976 : en: Chapter 8
    01: 00: 47.518 : en: Chapter 9
    01: 10: 00.529 : en: Chapter 10
    01: 17: 50.916 : en: Chapter 11
    01: 25: 12.107 : en: Chapter 12
    01: 30: 40.435 : en: Chapter 13


    Онлайн видео Извне (Падение, Хищники-инопланетяне)



    Извне (Падение, Хищники-инопланетяне)/Alien Predator/The Falling/Mutant II/Cosmos Mortal (1985) BDRemux [H.264/1080p]
    Рейтинг →
     (голосов: 1, оценка 4/5, голосовать можно 1 раз )

    Другие торренты по теме:

  • Извне / Alien Predator (1985) HDTV [H.264 / 1080i-LQ] скачать через торрент бесплатно
  • Beyond: Light Advent / Извне: Пришествие света (2015) [Ru] Unofficial [Collectors Edition] (Посвящается светлой памяти Dizzery) скачать через торрент бесплатно
  • Извне / From Beyond (1986) BDRip [H.265 / 1080p-LQ]
  • Beyond 2: Star Descendant / Извне 2: Звездный потомок (2016) [Ru] (1.0) Unofficial [Collectors Edition / Коллекционное издание]
  • Извне / From Beyond (1986) BDRip [H.264 / 720p] [Directors Cut]
  • Василий Головачев | Извне-1 [сборник] (2018) [FB2]
  • Beyond 3: The Fading Signal / Извне 3: Исчезнувший сигнал (2018) [Ru] (1.0) Unofficial [Collectors Edition / Коллекционное издание]


    • Комментарии (0):

      Информация

      Информация

        Посетители, находящиеся в группе Гости, не могут оставлять комментарии в данной новости.

        ↓ Меню




        ↓ Опрос

        Вы добавили сайт в закладки?
        Да
        Нет


        Популярное