.
Авторизация | Регистрация
bitok.xyz
» » Эта прекрасная жизнь / Its a Wonderful Life (1946) BDRip [H.264 / 1080p] [Colorized] торрент скачать бесплатно


    Эта прекрасная жизнь / Its a Wonderful Life (1946) BDRip [H.264 / 1080p] [Colorized] торрент скачать бесплатно

    Дата: 31-12-2019, 05:00 | .torrent скачали: 0

    Эта прекрасная жизнь / Its a Wonderful Life (1946) BDRip [H.264 / 1080p] [Colorized]Производство: США/Liberty Films (II)
    Жанр: Фэнтези, драма, семейный
    Режиссер: Фрэнк Капра

    Актеры
    Джеймс Стюарт, Донна Рид, Лайонел Бэрримор, Томас Митчелл, Генри Треверс, Бьюла Бонди, Фрэнк Фэйлен, Уорд Бонд, Глория Грэм, Х.Б. Уорнер

    Описание

    Фильм снят по рассказу Филипа Ван Дорен Стерна Величайший подарок.
    Главный герой картины – обычный глава семейства и примерный отец по имени Джордж Бейли. Неожиданно в его жизни начинается полоса неудач – появившиеся одновременно трудности и проблемы разного рода вынуждают отчаявшегося мужчину задуматься о самоубийстве. В преддверии Рождества на выручку Джорджу Небеса направляют ангела-хранителя Кларенса, который не отличается большим опытом, но оказывается единственным ангелом из разряда второго класса без подопечных. Задание Кларенса состоит в том, чтобы исправить ситуацию и предотвратить совершение смертного греха – взамен ему обещаны крылья, которые помогут ему получить признание и быть на равных с остальными ангелами. Кларенс решает показать разочаровавшемуся Джорджу жизнь в ином ключе, чтобы тот смог осознать, что любовь его родных важнее любых карьерных успехов и продвижения по службе.

    Возраст: 12+ (зрителям, достигшим 12 лет)
    Продолжительность: 02: 10: 38
    Качество видео: BDRip
    Перевод: Многоголосый профессиональный, авторский
    Субтитры: Русские, английские
    Видео: AVC/H.264, 1440x1080, ~8487 Kbps
    Аудио 1: AC3, 2 ch, 192 kbps | Русский - MVO (DVD Магия)
    Аудио 2: AC3, 2 ch, 192 kbps | Русский - MVO (SomeWax)
    Аудио 3: AC3, 2 ch, 192 kbps | Русский - MVO (ОРТ)
    Аудио 4: AC3, 2 ch, 192 kbps | Русский – AVO (Карцев)
    Аудио 5: AC3, 2 ch, 224 kbps | Английский (Оригинал)
    Общее
    Уникальный идентификатор : 237726395510164725247659307540535060575 (0xB2D87038E9C962AA9AC0079B17F0285F)
    Полное имя : F: Джеймс СтюартЭта прекрасная жизньЭта прекрасная жизнь. 1946. BDRip 1080p.mkv
    Формат : Matroska
    Версия формата : Version 4/Version 2
    Размер файла : 8, 63 Гбайт
    Продолжительность : 2 ч. 10 м.
    Общий поток : 9462 Кбит/сек
    Название фильма : Release for Topmost
    Дата кодирования : UTC 2019-12-30 03: 39: 01
    Программа кодирования : mkvmerge v6.2.0 (\'Promised Land\') built on Apr 28 2013 12: 22: 01
    Библиотека кодирования : libebml v1.3.0 + libmatroska v1.4.0
    Attachment : Yes
    Видео
    Идентификатор : 1
    Формат : AVC
    Формат/Информация : Advanced Video Codec
    Профиль формата : High@L4.1
    Параметр CABAC формата : Да
    Параметр ReFrames формата : 5 кадров
    Идентификатор кодека : V_MPEG4/ISO/AVC
    Продолжительность : 2 ч. 10 м.
    Битрейт : 8487 Кбит/сек
    Ширина : 1440 пикселей
    Высота : 1080 пикселей
    Соотношение сторон : 4: 3
    Режим частоты кадров : Постоянный
    Частота кадров : 23, 976 кадра/сек
    Цветовое пространство : YUV
    Субдискретизация насыщенности : 4: 2: 0
    Битовая глубина : 8 бит
    Тип развёртки : Прогрессивная
    Бит/(Пиксели*Кадры) : 0.228
    Размер потока : 7, 56 Гбайт (88%)
    Заголовок : Эта прекрасная жизнь. 1946. BDRip 1080p /Release for Topmost/
    Библиотека кодирования : x264 core 146 r2538 121396c
    Настройки программы : cabac=1/ref=5/deblock=1: -3: -3/analyse=0x3: 0x113/me=umh/subme=11/psy=1/psy_rd=1.00: 0.15/mixed_ref=1/me_range=32/chroma_me=1/trellis=2/8x8dct=1/cqm=0/deadzone=21, 11/fast_pskip=0/chroma_qp_offset=-3/threads=12/lookahead_threads=2/sliced_threads=0/nr=0/decimate=0/interlaced=0/bluray_compat=0/constrained_intra=0/bframes=8/b_pyramid=2/b_adapt=2/b_bias=0/direct=1/weightb=1/open_gop=0/weightp=2/keyint=240/keyint_min=23/scenecut=40/intra_refresh=0/rc_lookahead=40/rc=2pass/mbtree=0/bitrate=8487/ratetol=1.0/qcomp=0.60/qpmin=0/qpmax=69/qpstep=4/cplxblur=20.0/qblur=0.5/vbv_maxrate=14000/vbv_bufsize=14000/nal_hrd=none/filler=0/ip_ratio=1.40/pb_ratio=1.30/aq=1: 0.90
    Язык : English
    Default : Да
    Forced : Нет
    Аудио #1
    Идентификатор : 2
    Формат : AC-3
    Формат/Информация : Audio Coding 3
    Расширение режима : CM (complete main)
    Параметр Endianness формата : Big
    Идентификатор кодека : A_AC3
    Продолжительность : 2 ч. 10 м.
    Вид битрейта : Постоянный
    Битрейт : 192 Кбит/сек
    Каналы : 2 канала
    Расположение каналов : Front: L R
    Частота : 48, 0 КГц
    Битовая глубина : 16 бит
    Метод сжатия : С потерями
    Размер потока : 179 Мбайт (2%)
    Заголовок : DVD Магия
    Язык : Russian
    Default : Да
    Forced : Нет
    Аудио #2
    Идентификатор : 3
    Формат : AC-3
    Формат/Информация : Audio Coding 3
    Расширение режима : CM (complete main)
    Параметр Endianness формата : Big
    Идентификатор кодека : A_AC3
    Продолжительность : 2 ч. 10 м.
    Вид битрейта : Постоянный
    Битрейт : 192 Кбит/сек
    Каналы : 2 канала
    Расположение каналов : Front: L R
    Частота : 48, 0 КГц
    Битовая глубина : 16 бит
    Метод сжатия : С потерями
    Размер потока : 179 Мбайт (2%)
    Заголовок : SomeWax
    Язык : Russian
    Default : Нет
    Forced : Нет
    Аудио #3
    Идентификатор : 4
    Формат : AC-3
    Формат/Информация : Audio Coding 3
    Расширение режима : CM (complete main)
    Параметр Endianness формата : Big
    Идентификатор кодека : A_AC3
    Продолжительность : 2 ч. 10 м.
    Вид битрейта : Постоянный
    Битрейт : 192 Кбит/сек
    Каналы : 2 канала
    Расположение каналов : Front: L R
    Частота : 48, 0 КГц
    Битовая глубина : 16 бит
    Метод сжатия : С потерями
    Размер потока : 179 Мбайт (2%)
    Заголовок : ОРТ
    Язык : Russian
    Default : Нет
    Forced : Нет
    Аудио #4
    Идентификатор : 5
    Формат : AC-3
    Формат/Информация : Audio Coding 3
    Расширение режима : CM (complete main)
    Параметр Endianness формата : Big
    Идентификатор кодека : A_AC3
    Продолжительность : 2 ч. 10 м.
    Вид битрейта : Постоянный
    Битрейт : 192 Кбит/сек
    Каналы : 2 канала
    Расположение каналов : Front: L R
    Частота : 48, 0 КГц
    Битовая глубина : 16 бит
    Метод сжатия : С потерями
    Размер потока : 179 Мбайт (2%)
    Заголовок : Петр Карцев
    Язык : Russian
    Default : Нет
    Forced : Нет
    Аудио #5
    Идентификатор : 6
    Формат : AC-3
    Формат/Информация : Audio Coding 3
    Расширение режима : CM (complete main)
    Параметр Endianness формата : Big
    Идентификатор кодека : A_AC3
    Продолжительность : 2 ч. 10 м.
    Вид битрейта : Постоянный
    Битрейт : 224 Кбит/сек
    Каналы : 2 канала
    Расположение каналов : Front: L R
    Частота : 48, 0 КГц
    Битовая глубина : 16 бит
    Метод сжатия : С потерями
    Размер потока : 209 Мбайт (2%)
    Язык : English
    Default : Нет
    Forced : Нет
    Текст #1
    Идентификатор : 7
    Формат : UTF-8
    Идентификатор кодека : S_TEXT/UTF8
    Идентификатор кодека/Информация : UTF-8 Plain Text
    Заголовок : DVD Magic
    Язык : Russian
    Default : Нет
    Forced : Нет
    Текст #2
    Идентификатор : 8
    Формат : UTF-8
    Идентификатор кодека : S_TEXT/UTF8
    Идентификатор кодека/Информация : UTF-8 Plain Text
    Заголовок : RONEsS
    Язык : Russian
    Default : Нет
    Forced : Нет
    Текст #3
    Идентификатор : 9
    Формат : UTF-8
    Идентификатор кодека : S_TEXT/UTF8
    Идентификатор кодека/Информация : UTF-8 Plain Text
    Заголовок : SRT
    Язык : English
    Default : Нет
    Forced : Нет
    Меню
    00: 00: 00.000 : en: 00: 00: 00.000
    00: 03: 42.931 : en: 00: 03: 42.931
    00: 05: 24.908 : en: 00: 05: 24.908
    00: 07: 45.840 : en: 00: 07: 45.840
    00: 11: 39.449 : en: 00: 11: 39.449
    00: 14: 16.689 : en: 00: 14: 16.689
    00: 19: 02.767 : en: 00: 19: 02.767
    00: 21: 14.023 : en: 00: 21: 14.023
    00: 24: 03.317 : en: 00: 24: 03.317
    00: 35: 15.613 : en: 00: 35: 15.613
    00: 42: 32.091 : en: 00: 42: 32.091
    00: 50: 16.430 : en: 00: 50: 16.430
    01: 00: 11.900 : en: 01: 00: 11.900
    01: 03: 49.576 : en: 01: 03: 49.576
    01: 13: 55.139 : en: 01: 13: 55.139
    01: 16: 50.397 : en: 01: 16: 50.397
    01: 19: 07.368 : en: 01: 19: 07.368
    01: 22: 59.933 : en: 01: 22: 59.933
    01: 30: 24.127 : en: 01: 30: 24.127
    01: 32: 19.159 : en: 01: 32: 19.159
    01: 35: 34.228 : en: 01: 35: 34.228
    01: 38: 39.330 : en: 01: 38: 39.330
    01: 39: 45.396 : en: 01: 39: 45.396
    01: 46: 44.607 : en: 01: 46: 44.607
    01: 52: 47.344 : en: 01: 52: 47.344
    02: 01: 26.029 : en: 02: 01: 26.029
    02: 03: 35.700 : en: 02: 03: 35.700
    02: 08: 09.432 : en: 02: 08: 09.432

    Скриншоты для ознакомления



    Все одноименные релизы в Клубе
    Время раздачи: 24/7 до 5 скачавших (до появления первых 3-5 скачавших)

    Онлайн видео Эта прекрасная жизнь



    Эта прекрасная жизнь/Its a Wonderful Life (1946) BDRip [H.264/1080p] [Colorized]
    Рейтинг →
     (голосов: 1, оценка 4/5, голосовать можно 1 раз )

    Другие торренты по теме:

  • Zero People - Прекрасная жизнь (2016) [MP3|320 Kbps] <Alternative Rock>
  • Прекрасная и ужасная жизнь Лени Рифеншталь / Die Macht der Bilder: Leni Riefenstahl (1993) DVDRip (2 части из 2)
  • NGW: Прекрасная Америка: На границе с дикой природой. Тайная жизнь фермы / Americas wild frontier. Secret Life of a Farm (2017) HDTVRip [H.264 / 1080p-LQ]


    • Комментарии (0):

      Информация

      Информация

        Посетители, находящиеся в группе Гости, не могут оставлять комментарии в данной новости.

        ↓ Меню




        ↓ Опрос

        Вы добавили сайт в закладки?
        Да
        Нет


        Популярное