.
Авторизация | Регистрация
bitok.xyz
» » День учителя (2012) WEBRip [H.264 / 1080p-LQ] [PR] торрент скачать бесплатно


    День учителя (2012) WEBRip [H.264 / 1080p-LQ] [PR] торрент скачать бесплатно

    Дата: 31-12-2019, 05:00 | .torrent скачали: 0

    День учителя (2012) WEBRip [H.264 / 1080p-LQ] [PR]Производство: Россия/Кинокомпания Новые люди
    Жанр: Комедия, драма
    Режиссер: Сергей Мокрицкий

    Актеры
    Анатолий Кот, Светлана Немоляева, Ирина Рахманова, Марианна Шульц, Александр Горчилин, Андрей Бильжо, Людмила Титова, Лариса Дадиани, Артем Федотов, Владимир Терещенко

    Описание

    Один день из жизни типичного персонажа российской истории, маленького человека — учителя русского языка и литературы в школе. Интеллигент и его проблемы в начале XXI века. Один день из жизни страны, которая когда-то любила Есенина. О том, что у неё еще есть надежда…

    Возраст: 12+ (зрителям, достигшим 12 лет)
    Продолжительность: 01: 18: 22
    Качество видео: WEBRip
    Субтитры: Отсутствуют
    Видео: AVC/H.264, 1920x1016, ~5000 Kbps
    Аудио #1: AC3, 6 ch, 448 Kbps - русский
    Аудио #2: AC3, 2 ch, 192 Kbps - русский
    Общее
    Уникальный идентификатор : 318236024053909284198777095822088531694 (0xEF6A07602548BB2BEAF0E86D95DEEEEE)
    Полное имя : G: День учителя (2012).mkv
    Формат : Matroska
    Версия формата : Version 4
    Размер файла : 3, 09 Гбайт
    Продолжительность : 1 ч. 18 м.
    Общий поток : 5636 Кбит/сек
    Название фильма : День учителя
    Дата кодирования : UTC 2019-12-30 11: 02: 11
    Программа кодирования : mkvmerge v41.0.0 (\'Smarra\') 32-bit
    Библиотека кодирования : libebml v1.3.9 + libmatroska v1.5.2/Lavf58.20.100
    Видео
    Идентификатор : 1
    Формат : AVC
    Формат/Информация : Advanced Video Codec
    Профиль формата : High@L4
    Настройки формата : CABAC/3 Ref Frames
    Параметр CABAC формата : Да
    Параметр RefFrames формата : 3 кадра
    Идентификатор кодека : V_MPEG4/ISO/AVC
    Продолжительность : 1 ч. 18 м.
    Битрейт : 5000 Кбит/сек
    Ширина : 1920 пикселей
    Высота : 1016 пикселей
    Соотношение сторон : 1, 890
    Режим частоты кадров : Постоянный
    Частота кадров : 25, 000 кадров/сек
    Цветовое пространство : YUV
    Субдискретизация насыщенности : 4: 2: 0
    Битовая глубина : 8 бит
    Тип развёртки : Прогрессивная
    Бит/(Пиксели*Кадры) : 0.103
    Размер потока : 2, 73 Гбайт (89%)
    Библиотека кодирования : x264 core 142 r2479 dd79a61
    Настройки программы : cabac=1/ref=3/deblock=1: 0: 0/analyse=0x3: 0x133/me=hex/subme=6/psy=1/psy_rd=1.00: 0.00/mixed_ref=0/me_range=16/chroma_me=1/trellis=1/8x8dct=1/cqm=0/deadzone=21, 11/fast_pskip=0/chroma_qp_offset=-2/threads=72/lookahead_threads=7/sliced_threads=0/nr=0/decimate=1/interlaced=0/bluray_compat=0/constrained_intra=0/bframes=3/b_pyramid=1/b_adapt=2/b_bias=0/direct=1/weightb=1/open_gop=0/weightp=2/keyint=96/keyint_min=49/scenecut=0/intra_refresh=0/rc_lookahead=40/rc=2pass/mbtree=1/bitrate=5000/ratetol=1.0/qcomp=0.60/qpmin=0/qpmax=69/qpstep=4/cplxblur=20.0/qblur=0.5/ip_ratio=1.40/aq=1: 1.00
    Default : Да
    Forced : Нет
    Цветовой диапазон : Limited
    Основные цвета : BT.709
    Характеристики трансфера : BT.709
    Коэффициенты матрицы : BT.709
    Аудио #1
    Идентификатор : 2
    Формат : AC-3
    Формат/Информация : Audio Coding 3
    Коммерческое название : Dolby Digital
    Идентификатор кодека : A_AC3
    Продолжительность : 1 ч. 18 м.
    Вид битрейта : Постоянный
    Битрейт : 448 Кбит/сек
    Каналы : 6 каналов
    ChannelLayout : L R C LFE Ls Rs
    Частота : 48, 0 КГц
    Частота кадров : 31, 250 кадров/сек (1536 SPF)
    Метод сжатия : С потерями
    Задержка видео : -80 мс.
    Размер потока : 251 Мбайт (8%)
    ServiceKind/String : Complete Main
    Default : Нет
    Forced : Нет
    Аудио #2
    Идентификатор : 3
    Формат : AC-3
    Формат/Информация : Audio Coding 3
    Коммерческое название : Dolby Digital
    Идентификатор кодека : A_AC3
    Продолжительность : 1 ч. 18 м.
    Вид битрейта : Постоянный
    Битрейт : 192 Кбит/сек
    Каналы : 2 канала
    ChannelLayout : L R
    Частота : 48, 0 КГц
    Частота кадров : 31, 250 кадров/сек (1536 SPF)
    Метод сжатия : С потерями
    Задержка видео : -80 мс.
    Размер потока : 108 Мбайт (3%)
    ServiceKind/String : Complete Main
    Default : Да
    Forced : Нет

    Скриншоты для ознакомления



    Все одноименные релизы в Клубе
    Время раздачи: 24/7 (круглосуточно) (до появления первых 3-5 скачавших)

    Онлайн видео День учителя (2012) WEBRip [H.264



    День учителя (2012) WEBRip [H.264/1080p-LQ] [PR]
    Рейтинг →
     (голосов: 1, оценка 3/5, голосовать можно 1 раз )

    Другие торренты по теме:

  • Обзор. Чемпионат Европы 2016. Отборочный турнир. 9 тур. 2-й день. 3-й день. Обзор тура. (2015) HDTVRip [H.264 / 720p-LQ] скачать через торрент бесплатно
  • Последний москаль. Судный День / Останній моcкаль. Судний День (2016) WEB-DLRip [H.264 / 720p-LQ] (сезон 2, серии 1-8 из 16) (обновляемая)
  • Последний москаль. Судный День / Останній моcкаль. Судний День (2016) WEB-DLRip (сезон 2, серии 1-8 из 16) (обновляемая)
  • Последний москаль. Судный День / Останній моcкаль. Судний День (2016) WEB-DLRip [H.264 / 1080p-LQ] (сезон 2, серии 1-8 из 16) (обновляемая)
  • Валентин Черных - День приезда - день отъезда (1978) TVRip (2 части) (Театр им. Моссовета)
  • Шумный день (1960) DVDRip
  • День Ангела (1968) DVDRip [H.264]
  • Александр Зорин | От крестин до похорон - один день (2010) [PDF]


    • Комментарии (0):

      Информация

      Информация

        Посетители, находящиеся в группе Гости, не могут оставлять комментарии в данной новости.

        ↓ Меню




        ↓ Опрос

        Вы добавили сайт в закладки?
        Да
        Нет


        Популярное