.
Авторизация | Регистрация
bitok.xyz
» » Бекзат (2018) WEB-DLRip [KAZ / RU Sub] торрент скачать бесплатно


    Бекзат (2018) WEB-DLRip [KAZ / RU Sub] торрент скачать бесплатно

    Дата: 31-12-2019, 05:00 | .torrent скачали: 0

    Бекзат (2018) WEB-DLRip [KAZ / RU Sub]Производство: Казахстан/Хабар
    Жанр: Драма, биография
    Режиссер: Мурат Бидосов

    Актеры
    Дулыга Акмолда, Самат Азимкулов, Галымбек Оспанов, Мурат Жарылкасынов, Куаныш Мукатай, Бакдаулет Шаймахан

    Описание

    Художественный фильм Бекзат рассказывает о жизни и трудном пути Бекзата к триумфальной победе в Сиднее. В сложные 90-е не смотря на жизненные трудности, Бекзат, будучи подростком, выбирает для себя путь боксера. Выросший в обычной семье и ставивший перед собой высокие цели, Бекзат смог их достичь путем трудных и поворотных событий. Начав спортивную карьеру в 15 лет, он стал первым казахстанским боксером, завоевавшим титул чемпиона Олимпийских игр в 2000 году в 20 лет.
    Релиз от: Алехаndr
    Продолжительность: 01: 39: 31
    Качество видео: WEB-DLRip
    Язык озвучки: Казахский
    Субтитры: Русские (хардсаб)
    Видео: Xvid, 720x304 (2.35: 1), ~1765 Kbps
    Аудио: AC3, 2 ch, 192 Kbps - казахский
    Общее
    Полное имя : D: Бекзат (2018).by.Алехаndr.avi
    Формат : AVI
    Формат/Информация : Audio Video Interleave
    Профиль формата : OpenDML
    Размер файла : 1, 37 Гбайт
    Продолжительность : 1 ч. 39 м.
    Общий поток : 1969 Кбит/сек
    Программа кодирования : Lavf58.20.100
    Видео
    Идентификатор : 0
    Формат : MPEG-4 Visual
    Профиль формата : Advanced Simple@L5
    Настройки формата : BVOP2
    Параметр BVOP формата : 2
    Параметр QPel формата : Нет
    Параметр GMC формата : Без точки перехода
    Параметр матрицы формата : Default (MPEG)
    Идентификатор кодека : XVID
    Идентификатор кодека/Подсказка : XviD
    Продолжительность : 1 ч. 39 м.
    Битрейт : 1764 Кбит/сек
    Ширина : 720 пикселей
    Высота : 304 пикселя
    Соотношение сторон : 2, 35: 1
    Частота кадров : 25, 000 кадров/сек
    Цветовое пространство : YUV
    Субдискретизация насыщенности : 4: 2: 0
    Битовая глубина : 8 бит
    Тип развёртки : Прогрессивная
    Метод сжатия : С потерями
    Бит/(Пиксели*Кадры) : 0.322
    Размер потока : 1, 23 Гбайт (90%)
    Библиотека кодирования : XviD 67
    Аудио
    Идентификатор : 1
    Формат : AC-3
    Формат/Информация : Audio Coding 3
    Коммерческое название : Dolby Digital
    Идентификатор кодека : 2000
    Продолжительность : 1 ч. 39 м.
    Вид битрейта : Постоянный
    Битрейт : 192 Кбит/сек
    Каналы : 2 канала
    ChannelLayout : L R
    Частота : 48, 0 КГц
    Частота кадров : 31, 250 кадров/сек (1536 SPF)
    Битовая глубина : 16 бит
    Метод сжатия : С потерями
    Размер потока : 137 Мбайт (10%)
    Выравнивание : Соединение по промежуткам
    Продолжительность промежутка : 32 мс. (0, 80 видеокадр)
    ServiceKind/String : Complete Main

    Скриншоты для ознакомления



    Все одноименные релизы в Клубе
    Время раздачи: 24/7 (круглосуточно) (до появления первых 3-5 скачавших)

    Онлайн видео Бекзат (2018) WEB-DLRip [KAZ



    Бекзат (2018) WEB-DLRip [KAZ/RU Sub]
    Рейтинг →
     (голосов: 1, оценка 4/5, голосовать можно 1 раз )

    Другие торренты по теме:



      Комментарии (0):

      Информация

      Информация

        Посетители, находящиеся в группе Гости, не могут оставлять комментарии в данной новости.

        ↓ Меню




        ↓ Опрос

        Вы добавили сайт в закладки?
        Да
        Нет


        Популярное