.
Авторизация | Регистрация
bitok.xyz
» » Suicide Silence - Videoclips 20X (2007-2019) WEB-DL [VP9 / 2160p, H.264 / 1080p, 720p] торрент скачать бесплатно


    Suicide Silence - Videoclips 20X (2007-2019) WEB-DL [VP9 / 2160p, H.264 / 1080p, 720p] торрент скачать бесплатно

    Дата: 31-12-2019, 05:00 | .torrent скачали: 0

    Suicide Silence - Videoclips 20X (2007-2019) WEB-DL [VP9 / 2160p, H.264 / 1080p, 720p]Жанр: Death Core

    Описание

    Suicide Silence - Videoclips 2007-2019
    Продолжительность: 01: 24: 56
    Качество видео: WEB-DL VP9/AVC-H264 - 2160p/1080p/720p
    Видео: VP9, 3840x1620, ~7178 kbps/H264, 1920x1080, ~18.9 Mbps kbps/H264, 1280x720, ~4253 kbps
    Аудио: Opus, 2 ch, ~256 kbps/AAC, 2 ch, ~353 kbps
    Треклист:
    Bludgeoned To Death (by Scott Hansen)
    Bludgeoned to Death (Mantis Deathstep Remix)
    The Price Of Beauty
    Unanswered
    Wake Up (by Scott Hansen)
    Disengage - Performance Cut
    Genocide - Saw VI Remix
    Slaves For Substance (by Scott Hansen)
    You Only Live Once (by Nathan Cox)
    Shame (Terror Nights)You Can\'t Stop Me (by Nathan Cox)
    Sacred Words - Live
    Bibeau
    I Don\'t Want To Live
    Doris (360° Video)
    Dying in a Red Room (by Vice Cooler)
    Blind (Live)
    Part 1 Meltdown (by Scott Hansen)
    Part 2 Love Me To Death (by Scott Hansen)
    Part 3 Feel Alive (by Scott Hansen)
    2019 Suicide Silence - Part 3 Feel Alive (by Scott Hansen) 2160p 2019.mkv
    Format : Matroska
    Format version : Version 2
    File size : 190 MiB
    Duration : 3 min 42 s
    Overall bit rate : 7 178 kb/s
    Encoded date : UTC 2019-12-22 22: 20: 55
    Writing application : mkvmerge v4.1.1 (\'Bouncin\' Back\') сборка от Jul 3 2010 22: 54: 08
    Writing library : libebml v1.0.0 + libmatroska v1.0.0/Lavf58.33.100
    Video
    ID : 1
    Format : VP9
    Codec ID : V_VP9
    Duration : 3 min 42 s
    Width : 3 840 pixels
    Height : 1 620 pixels
    Display aspect ratio : 2.40: 1
    Frame rate mode : Constant
    Frame rate : 23.976 (24000/1001) FPS
    Language : English
    Default : Yes
    Forced : No
    Audio
    ID : 2
    Format : Opus
    Codec ID : A_OPUS
    Duration : 3 min 42 s
    Channel(s) : 2 channels
    Channel layout : L R
    Sampling rate : 48.0 kHz
    Bit depth : 32 bits
    Compression mode : Lossy
    Language : English
    Default : Yes
    Forced : No
    2016 Reign - I Don\'t Want To Live 1080p 2016.mp4
    Format : MPEG-4
    Format profile : Base Media/Version 2
    Codec ID : mp42 (mp42/mp41)
    File size : 610 MiB
    Duration : 4 min 11 s
    Overall bit rate mode : Variable
    Overall bit rate : 20.3 Mb/s
    Encoded date : UTC 2016-10-09 14: 02: 43
    Tagged date : UTC 2016-10-09 14: 02: 56
    TIM : 00: 00: 00: 00
    TSC : 24
    TSZ : 1
    Video
    ID : 1
    Format : AVC
    Format/Info : Advanced Video Codec
    Format profile : High@L4
    Format settings : CABAC/3 Ref Frames
    Format settings, CABAC : Yes
    Format settings, Reference frames : 3 frames
    Codec ID : avc1
    Codec ID/Info : Advanced Video Coding
    Duration : 4 min 11 s
    Source duration : 4 min 11 s
    Bit rate : 20.0 Mb/s
    Width : 1 920 pixels
    Height : 1 080 pixels
    Display aspect ratio : 16: 9
    Frame rate mode : Variable
    Frame rate : 24.000 FPS
    Minimum frame rate : 24.000 FPS
    Maximum frame rate : 24.024 FPS
    Standard : NTSC
    Color space : YUV
    Chroma subsampling : 4: 2: 0
    Bit depth : 8 bits
    Scan type : Progressive
    Bits/(Pixel*Frame) : 0.402
    Stream size : 600 MiB (98%)
    Source stream size : 600 MiB (98%)
    Language : English
    Encoded date : UTC 2016-10-09 14: 02: 43
    Tagged date : UTC 2016-10-09 14: 02: 43
    Color range : Limited
    Color primaries : BT.709
    Transfer characteristics : BT.709
    Matrix coefficients : BT.709
    mdhd_Duration : 251708
    Codec configuration box : avcC
    Audio
    ID : 2
    Format : AAC LC
    Format/Info : Advanced Audio Codec Low Complexity
    Codec ID : mp4a-40-2
    Duration : 4 min 11 s
    Source duration : 4 min 11 s
    Bit rate mode : Variable
    Bit rate : 318 kb/s
    Maximum bit rate : 388 kb/s
    Channel(s) : 2 channels
    Channel layout : L R
    Sampling rate : 44.1 kHz
    Frame rate : 43.066 FPS (1024 SPF)
    Compression mode : Lossy
    Stream size : 9.53 MiB (2%)
    Source stream size : 9.53 MiB (2%)
    Language : English
    Encoded date : UTC 2016-10-09 14: 02: 43
    Tagged date : UTC 2016-10-09 14: 02: 43
    mdhd_Duration : 251751
    2015 Suicide Silence - Sacred Words - Live 720p 2015.mp4
    Format : MPEG-4
    Format profile : Base Media
    Codec ID : isom (isom/iso2/avc1/mp41)
    File size : 66.3 MiB
    Duration : 5 min 3 s
    Overall bit rate : 1 831 kb/s
    Writing application : Lavf58.29.100
    Video
    ID : 1
    Format : AVC
    Format/Info : Advanced Video Codec
    Format profile : Main@L3.1
    Format settings : CABAC/3 Ref Frames
    Format settings, CABAC : Yes
    Format settings, Reference frames : 3 frames
    Codec ID : avc1
    Codec ID/Info : Advanced Video Coding
    Duration : 5 min 3 s
    Bit rate : 1 698 kb/s
    Width : 1 280 pixels
    Height : 720 pixels
    Display aspect ratio : 16: 9
    Frame rate mode : Constant
    Frame rate : 29.970 (30000/1001) FPS
    Color space : YUV
    Chroma subsampling : 4: 2: 0
    Bit depth : 8 bits
    Scan type : Progressive
    Bits/(Pixel*Frame) : 0.061
    Stream size : 61.5 MiB (93%)
    Codec configuration box : avcC
    Audio
    ID : 2
    Format : AAC LC
    Format/Info : Advanced Audio Codec Low Complexity
    Codec ID : mp4a-40-2
    Duration : 5 min 3 s
    Bit rate mode : Constant
    Bit rate : 126 kb/s
    Channel(s) : 2 channels
    Channel layout : L R
    Sampling rate : 44.1 kHz
    Frame rate : 43.066 FPS (1024 SPF)
    Compression mode : Lossy
    Stream size : 4.55 MiB (7%)
    Default : Yes
    Alternate group : 1

    Скриншоты для ознакомления



    Все одноименные релизы в Клубе
    Граждане !!! Оставайтесь на раздаче как можно дольше.

    Время раздачи: с 08: 00 до 24: 00 (до появления первых 3-5 скачавших)

    Онлайн видео Suicide Silence - Videoclips 20X (2007-2019) WEB-DL [VP9



    Suicide Silence - Videoclips 20X (2007-2019) WEB-DL [VP9/2160p, H.264/1080p, 720p]
    Рейтинг →
     (голосов: 1, оценка 4/5, голосовать можно 1 раз )

    Другие торренты по теме:

  • Suicide Silence - 5 Albums, 2 EP, 1 Live (2005-2017) [MP3|320 кб / с]<Deathcore, Nu-Metal>


    • Комментарии (0):

      Информация

      Информация

        Посетители, находящиеся в группе Гости, не могут оставлять комментарии в данной новости.

        ↓ Меню




        ↓ Опрос

        Вы добавили сайт в закладки?
        Да
        Нет


        Популярное