.
Авторизация | Регистрация
bitok.xyz
» » Затерянные в космосе / Lost in Space (2019) WEB-DL [H.265 / 2160p] [HDR, 10-bit] (сезон 2, серии 1-10 из 10) Пифагор торрент скачать бесплатно


    Затерянные в космосе / Lost in Space (2019) WEB-DL [H.265 / 2160p] [HDR, 10-bit] (сезон 2, серии 1-10 из 10) Пифагор торрент скачать бесплатно

    Дата: 31-12-2019, 05:00 | .torrent скачали: 0

    Затерянные в космосе / Lost in Space (2019) WEB-DL [H.265 / 2160p] [HDR, 10-bit] (сезон 2, серии 1-10 из 10) ПифагорПроизводство: США/Applebox Pictures, Clickety-Clack Productions, Legendary Television, Synthesis Entertainment
    Жанр: Фантастика
    Режиссер: Тим Соутэм, Дебора Чоу, Стивен Серджик

    Актеры
    Мина Сандвол, Молли Паркер, Тоби Стивенс, Паркер Поузи, Макс Дженкинс, Тейлор Расселл, Игнасио Серричио, Амелия Берстин, Раза Джеффри, Аджай Парих-Фризе

    Описание

    2046 год. Космический корабль теряется в космосе и терпит крушение на планете на расстоянии нескольких световых лет от планируемого места назначения. Его обитатели, семья Робинсонов, вынуждены приспособиться и выжить в новых условиях. Джон и Морин Робинсоны не слишком хорошо ладят друг с другом, но отчаянно пытаются не замечать своих проблем ради сохранения хотя бы подобия семьи, ведь у них такие талантливые дети! Джуди, Пенни и Уилл — замечательные, способные малыши, и они совсем не заслужили слушать бесконечные выяснения отношений между отцом и матерью. А им придется расти с этим, ведь все они оказались в открытом космосе на множество световых лет из-за ошибки в навигации.

    Продолжительность: ~ 01: 04: 00 серия
    Качество видео: WEB-DL 2160p
    Перевод: Дублированный (Пифагор)
    Субтитры: Русские (Forced, full), английские
    Видео: HEVC/H.265, 3840x1744, ~21.1Mbps
    Аудио#01: AC3, 6 ch, 640 Kbps (Русский)
    Аудио#02: E-AC3+Atmos, 6 ch, 768 Kbps (Английский)
    General
    Unique ID : 139840726330372979014432657386255733239 (0x6934581F5B1A3A0949F289C1C290D1F7)
    Complete name : D: Kino DLost.in.Space.2019.S02.WEB-DL.2160p.HDR.seleZenLost.in.Space.2019.S02E03.WEB-DL.2160p.HDR.seleZen.mkv
    Format : Matroska
    Format version : Version 4
    File size : 7.09 GiB
    Duration : 46 min 13 s
    Overall bit rate : 22.0 Mb/s
    Movie name : Lost in Space S02E03 from селезень
    Encoded date : UTC 2019-12-30 04: 13: 32
    Writing application : mkvmerge v41.0.0 (\'Smarra\') 64-bit
    Writing library : libebml v1.3.9 + libmatroska v1.5.2
    Video
    ID : 1
    Format : HEVC
    Format/Info : High Efficiency Video Coding
    Format profile : Main10@L5.1@High
    HDR format : SMPTE ST 2086, HDR10 compatible
    Codec ID : V_MPEGH/ISO/HEVC
    Duration : 45 min 8 s
    Bit rate : 21.1 Mb/s
    Width : 3 840 pixels
    Height : 1 744 pixels
    Display aspect ratio : 2.2: 1
    Frame rate mode : Constant
    Frame rate : 23.976 (24000/1001) FPS
    Color space : YUV
    Chroma subsampling : 4: 2: 0
    Bit depth : 10 bits
    Bits/(Pixel*Frame) : 0.131
    Stream size : 6.64 GiB (94%)
    Writing library : x265 3.2+22-a8a2c4c37267: WindowsMSVC 192464 bit 10bit
    Encoding settings : cpuid=1111039/frame-threads=4/numa-pools=28, 0/wpp/no-pmode/no-pme/no-psnr/no-ssim/log-level=2/input-csp=1/input-res=3840x1744/interlace=0/total-frames=0/level-idc=51/high-tier=1/uhd-bd=0/ref=5/no-allow-non-conformance/repeat-t_heads/annexb/no-aud/no-hrd/info/hash=0/no-temporal-layers/open-gop/min-keyint=23/keyint=250/gop-lookahead=0/bframes=8/b-adapt=2/b-pyramid/bframe-bias=0/rc-lookahead=40/lookahead-slices=0/scenecut=40/hist-scenecut=0/radl=0/no-splice/no-intra-refresh/ctu=64/min-cu-size=8/no-rect/no-amp/max-tu-size=32/tu-inter-depth=3/tu-intra-depth=3/limit-tu=0/rdoq-level=1/dynamic-rd=0.00/no-ssim-rd/signhide/no-tskip/nr-intra=0/nr-inter=0/no-constrained-intra/strong-intra-smoothing/max-merge=5/limit-refs=0/no-limit-modes/me=3/subme=4/merange=57/temporal-mvp/no-frame-dup/no-hme/weightp/weightb/no-analyze-src-pics/deblock=0: 0/no-sao/no-sao-non-deblock/rd=6/selective-sao=0/no-early-skip/rskip/no-fast-intra/no-tskip-fast/no-cu-lossless/b-intra/no-splitrd-skip/rdpenalty=0/psy-rd=4.00/psy-rdoq=8.00/no-rd-refine/no-lossless/cbqpoffs=0/crqpoffs=0/rc=crf/crf=15.0/qcomp=0.60/qpstep=4/stats-write=0/stats-read=0/vbv-maxrate=160000/vbv-bufsize=160000/vbv-init=0.9/crf-max=0.0/crf-min=0.0/ipratio=1.40/pbratio=1.30/aq-mode=2/aq-strength=1.00/cutree/zone-count=0/no-strict-cbr/qg-size=32/no-rc-grain/qpmax=69/qpmin=0/no-const-vbv/sar=0/overscan=0/videoformat=5/range=0/colorprim=9/transfer=16/colormatrix=9/chromaloc=0/display-window=0/master-display=G(13250, 34500)B(7500, 3000)R(34000, 16000)WP(15635, 16450)L(10000000, 1)/cll=5549, 1584/min-luma=0/max-luma=1023/log2-max-poc-lsb=8/vui-timing-info/vui-hrd-info/slices=1/no-opt-qp-pps/no-opt-ref-list-length-pps/no-multi-pass-opt-rps/scenecut-bias=0.05/hist-threshold=0.01/no-opt-cu-delta-qp/no-aq-motion/hdr/hdr-opt/no-dhdr10-opt/no-idr-recovery-sei/analysis-reuse-level=5/scale-factor=0/refine-intra=0/refine-inter=0/refine-mv=1/refine-ctu-distortion=0/no-limit-sao/ctu-info=0/no-lowpass-dct/refine-analysis-type=0/copy-pic=1/max-ausize-factor=1.0/no-dynamic-refine/no-single-sei/no-hevc-aq/no-svt/no-field/qp-adaptation-range=1.00/no-scenecut-aware-qp
    Language : English
    Default : Yes
    Forced : No
    Color range : Limited
    Color primaries : BT.2020
    Transfer characteristics : PQ
    Matrix coefficients : BT.2020 non-constant
    Mastering display color primar : Display P3
    Mastering display luminance : min: 0.0001 cd/m2, max: 1000 cd/m2
    Maximum Content Light Level : 5549 cd/m2
    Maximum Frame-Average Light Le : 1584 cd/m2
    Audio #1
    ID : 2
    Format : E-AC-3
    Format/Info : Enhanced AC-3
    Commercial name : Dolby Digital Plus
    Codec ID : A_EAC3
    Duration : 46 min 13 s
    Bit rate mode : Constant
    Bit rate : 640 kb/s
    Channel(s) : 6 channels
    Channel layout : L R C LFE Ls Rs
    Sampling rate : 48.0 kHz
    Frame rate : 31.250 FPS (1536 SPF)
    Compression mode : Lossy
    Stream size : 212 MiB (3%)
    Title : Dubbing
    Language : Russian
    Service kind : Complete Main
    Default : Yes
    Forced : Yes
    Audio #2
    ID : 3
    Format : E-AC-3 JOC
    Format/Info : Enhanced AC-3 with Joint Object Coding
    Commercial name : Dolby Digital Plus with Dolby Atmos
    Codec ID : A_EAC3
    Duration : 46 min 13 s
    Bit rate mode : Constant
    Bit rate : 768 kb/s
    Channel(s) : 6 channels
    Channel layout : L R C LFE Ls Rs
    Sampling rate : 48.0 kHz
    Frame rate : 31.250 FPS (1536 SPF)
    Compression mode : Lossy
    Stream size : 254 MiB (3%)
    Title : English
    Language : English
    Service kind : Complete Main
    Default : No
    Forced : No
    Complexity index : 16
    Number of dynamic objects : 15
    Bed channel count : 1 channel
    Bed channel configuration : LFE
    Text #1
    ID : 4
    Format : UTF-8
    Codec ID : S_TEXT/UTF8
    Codec ID/Info : UTF-8 Plain Text
    Duration : 44 min 48 s
    Bit rate : 1 b/s
    Count of elements : 11
    Stream size : 604 Bytes (0%)
    Title : Forced
    Language : Russian
    Default : Yes
    Forced : Yes
    Text #2
    ID : 5
    Format : UTF-8
    Codec ID : S_TEXT/UTF8
    Codec ID/Info : UTF-8 Plain Text
    Duration : 44 min 48 s
    Bit rate : 90 b/s
    Count of elements : 626
    Stream size : 29.5 KiB (0%)
    Title : Full
    Language : Russian
    Default : No
    Forced : No
    Text #3
    ID : 6
    Format : UTF-8
    Codec ID : S_TEXT/UTF8
    Codec ID/Info : UTF-8 Plain Text
    Duration : 43 min 17 s
    Bit rate : 74 b/s
    Count of elements : 742
    Stream size : 23.5 KiB (0%)
    Title : SDH
    Language : English
    Default : No
    Forced : No
    Menu
    00: 00: 05.005 : en: Intro start
    00: 01: 10.738 : en: Intro end

    Скриншоты для ознакомления



    Все одноименные релизы в Клубе
    Время раздачи: 24/7/365(6) (до появления первых 3-5 скачавших)

    Онлайн видео Затерянные в космосе



    Затерянные в космосе/Lost in Space (2019) WEB-DL [H.265/2160p] [HDR, 10-bit] (сезон 2, серии 1-10 из 10) Пифагор
    Рейтинг →
     (голосов: 1, оценка 5/5, голосовать можно 1 раз )

    Другие торренты по теме:

  • Затерянные в космосе / Lost in Space (1998) BDRip [H.264]
  • Затерянные в космосе / Lost in Space (2018) WEBRip [H.264 / 1080p-LQ] (сезон 1, серии 1-5 из 10) OMSKBIRD (обновляемая) [AD]
  • Затерянные в космосе / Lost in Space (2018) WEBRip [H.264 / 1080p-LQ] (сезон 1, серии 1-10 из 10) IdeaFilm [AD]
  • Затерянные в космосе / Lost in Space (2018) WEBRip [H.264 / 1080p-LQ] (сезон 1, серии 1-10 из 10) TVShows
  • Затерянные в космосе / Lost in Space (2019) WEBRip [H.264 / 1080p-LQ] (сезон 2, серии 1 из 10) (обновляемая) HDRezka Studio
  • Затерянные в космосе / Lost in Space (2019) WEBRip [H.264 / 1080p-LQ] (сезон 2, серии 1 из 10) LakeFilms [AD] (обновляемая)
  • Затерянные в космосе / Lost in Space (2018) WEB-DL [H.265 / 2160p] [HDR, 10-bit] (сезон 1, серии 1-10 из 10) [Пифагор]
  • Затерянные в космосе / Lost in Space (2019) WEBRip (сезон 2, серии 1 из 10) LostFilm (обновляемая)


    • Комментарии (0):

      Информация

      Информация

        Посетители, находящиеся в группе Гости, не могут оставлять комментарии в данной новости.

        ↓ Меню




        ↓ Опрос

        Вы добавили сайт в закладки?
        Да
        Нет


        Популярное