.
Авторизация | Регистрация
bitok.xyz
» » Шпион / The Spy (2019) WEBRip (сезон 1, серии 1-6 из 6) Nevafilm торрент скачать бесплатно


    Шпион / The Spy (2019) WEBRip (сезон 1, серии 1-6 из 6) Nevafilm торрент скачать бесплатно

    Дата: 31-12-2019, 05:00 | .torrent скачали: 4

    Шпион / The Spy (2019) WEBRip (сезон 1, серии 1-6 из 6) NevafilmПроизводство: Франция/Légende Films, Agora Films, Netflix
    Жанр: биография, история, драма
    Режиссер: Гидеон Рафф

    Актеры
    Саша Барон Коэн, Хадар Ратсон Ротем, Яэль Эйтан, Ноа Эммерих, Нассим Си Ахмед, Морад Зауи, Хичам Гуллал, Мони Мошонов, Алона Тал, Роберт Йезек и др.

    Описание

    Израильский разведчик Элай Коэн в 1960-е жил в Дамаске и, благодаря своему таланту молниеносно менять образ, смог внедриться в близкие к правительству Сирии круги.

    Дата мировой премьеры: 6 сентября 2019
    Продолжительность: ~00: 50: 00 серия
    Качество видео: WEBRip
    Перевод: Дублированный -Nevafilm
    Субтитры: русские, английские
    Видео: XviD, 720x344, ~1457 kbps
    Аудио 1: MP3, 2 ch, 128 kbps — русский
    Аудио 2: MP3, 2 ch, 128 kbps — английский
    Общее
    Полное имя : D: Шпион (сезон любимого сериала 1) The Spy (2019) WEBRip - NevafilmThe.Spy.S01E02.WEBRip.Rus.Eng.DV.Nevafilm.avi
    Формат : AVI
    Формат/Информация : Audio Video Interleave
    Размер файла : 617 Мбайт
    Продолжительность : 49 м. 58 с.
    Общий поток : 1727 Кбит/сек
    Название фильма : The.Spy.S01E02.WEBRip.Rus.Eng.DV.Nevafilm/NNM-Club
    Программа кодирования : VirtualDubModRus 1.5.10.2 (build 2542/release)
    Библиотека кодирования : VirtualDubMod build 2542/release
    Видео
    Идентификатор : 0
    Формат : MPEG-4 Visual
    Профиль формата : Advanced Simple@L5
    Настройки формата : BVOP2
    Параметр BVOP формата : 2
    Параметр QPel формата : Нет
    Параметр GMC формата : Без точки перехода
    Параметр матрицы формата : Default (H.263)
    Идентификатор кодека : XVID
    Идентификатор кодека/Подсказка : XviD
    Продолжительность : 49 м. 58 с.
    Битрейт : 1457 Кбит/сек
    Ширина : 720 пикселей
    Высота : 344 пикселя
    Соотношение сторон : 2, 093
    Частота кадров : 25, 000 кадров/сек
    Цветовое пространство : YUV
    Субдискретизация насыщенности : 4: 2: 0
    Битовая глубина : 8 бит
    Тип развёртки : Прогрессивная
    Метод сжатия : С потерями
    Бит/(Пиксели*Кадры) : 0.235
    Размер потока : 521 Мбайт (84%)
    Заголовок : Rip from DriverV for NNM-Club
    Библиотека кодирования : XviD 64
    Аудио #1
    Идентификатор : 1
    Формат : MPEG Audio
    Версия формата : Version 1
    Профиль формата : Layer 3
    Настройки формата : Joint stereo/MS Stereo
    Идентификатор кодека : 55
    Идентификатор кодека/Подсказка : MP3
    Продолжительность : 49 м. 58 с.
    Вид битрейта : Постоянный
    Битрейт : 128 Кбит/сек
    Каналы : 2 канала
    Частота : 48, 0 КГц
    Метод сжатия : С потерями
    Размер потока : 45, 8 Мбайт (7%)
    Выравнивание : Соединение по промежуткам
    Продолжительность промежутка : 40 мс. (1, 00 видеокадр)
    Время предзагрузки промежутка : 504 мс.
    Аудио #2
    Идентификатор : 2
    Формат : MPEG Audio
    Версия формата : Version 1
    Профиль формата : Layer 3
    Настройки формата : Joint stereo/MS Stereo
    Идентификатор кодека : 55
    Идентификатор кодека/Подсказка : MP3
    Продолжительность : 49 м. 58 с.
    Вид битрейта : Постоянный
    Битрейт : 128 Кбит/сек
    Каналы : 2 канала
    Частота : 48, 0 КГц
    Метод сжатия : С потерями
    Размер потока : 45, 8 Мбайт (7%)
    Выравнивание : Соединение по промежуткам
    Продолжительность промежутка : 40 мс. (1, 00 видеокадр)
    Время предзагрузки промежутка : 504 мс.

    Скриншоты для ознакомления



    Все одноименные релизы в Клубе
    Время раздачи: 24/7 (до появления первых 3-5 скачавших)

    Онлайн видео Шпион



    Шпион/The Spy (2019) WEBRip (сезон 1, серии 1-6 из 6) Nevafilm
    Рейтинг →
     (голосов: 1, оценка 4/5, голосовать можно 1 раз )

    Другие торренты по теме:

  • Шпион / Spy (2015) WEBRip [H.264 / 1080p-LQ] [звук с TS] скачать через торрент бесплатно
  • Шпион / Spy (2015) WEBRip [звук с TS] скачать через торрент бесплатно
  • Шпион / Spy (2015) WEBRip [Звук с TS] скачать через торрент бесплатно
  • Шпион / Spy (2015) WEBRip [H.264] [Line] скачать через торрент бесплатно
  • Шпион / Spy (2015) WEBRip [Line] скачать через торрент бесплатно
  • Шпион / Spy (2015) WEBRip [H.264 / 1080p-LQ] [Line] скачать через торрент бесплатно
  • Шпион / Spy (2015) WEBRip [Line] скачать через торрент бесплатно
  • Шпион / Spy (2015) WEBRip [H.264] [Line] скачать через торрент бесплатно


    • Комментарии (0):

      Информация

      Информация

        Посетители, находящиеся в группе Гости, не могут оставлять комментарии в данной новости.

        ↓ Меню




        ↓ Опрос

        Вы добавили сайт в закладки?
        Да
        Нет


        Популярное