.
Авторизация | Регистрация
bitok.xyz
» » Дождливый день в Нью-Йорке / A Rainy Day in New York (2019) BDRip [H.264 / 1080p] торрент скачать бесплатно


    Дождливый день в Нью-Йорке / A Rainy Day in New York (2019) BDRip [H.264 / 1080p] торрент скачать бесплатно

    Дата: 1-01-2020, 05:00 | .torrent скачали: 0

    Дождливый день в Нью-Йорке / A Rainy Day in New York (2019) BDRip [H.264 / 1080p]Производство: США/Gravier Productions, Perdido Productions
    Жанр: Мелодрама, комедия
    Режиссер: Вуди Аллен

    Актеры
    Тимоти Шаламе, Эль Фаннинг, Селена Гомес, Джуд Лоу, Диего Луна, Лив Шрайбер, Сюзанн Смит, Оливия Борхэм-Уинг, Бен Уорхейт, Гриффин Ньюман

    Описание

    Он — из состоятельной семьи Нью-Йорка, она — из небольшого городка в Аризоне. Выросший на Манхэттене юноша мечтает показать ей свой любимый город. Судьба дает ему шанс, когда девушку отправляют взять интервью у известного режиссера. Однако этот дождливый день изменит их жизнь навсегда. В проливной суете мегаполиса он встретит свою давнюю подругу, а девушку затянет в мир звездной богемы…

    Рейтинг MPAA: PG-13 (детям до 13 лет просмотр нежелателен)
    Дата мировой премьеры: 26 июля 2019
    Дата премьеры в России: 10 октября 2019
    Цифровой релиз: 1 января 2020

    Продолжительность: 01: 32: 23
    Качество видео: BDRip (1080p)
    Перевод: Дублированный (iTunes)
    Субтитры: Русские, английские
    Видео: AVC/H.264, 1920x960, ~19, 0 Mbps
    Аудио #1: AC3, 6 ch, 384 Kbps - Русский
    Аудио #2: AC3, 6 ch, 640 Kbps - Английский
    Общее
    Уникальный идентификатор : 211153920938651842451311982966289617290 (0x9EDAC41366EF9B80907F529B7416518A)
    Полное имя : D: NNMДождливый день в Нью-ЙоркеA.Rainy.Day.in.New.York.2019.D.BDRip.1080p.mkv
    Формат : Matroska
    Версия формата : Version 4
    Размер файла : 13, 2 Гбайт
    Продолжительность : 1 ч. 32 м.
    Общий поток : 20, 5 Мбит/сек
    Дата кодирования : UTC 2019-12-31 19: 13: 06
    Программа кодирования : mkvmerge v6.5.0 (\'Isn\'t she lovely\') built on Oct 20 2013 12: 50: 05
    Библиотека кодирования : libebml v1.3.0 + libmatroska v1.4.1
    Видео
    Идентификатор : 1
    Формат : AVC
    Формат/Информация : Advanced Video Codec
    Профиль формата : High@L4.1
    Настройки формата : CABAC/4 Ref Frames
    Параметр CABAC формата : Да
    Параметр RefFrames формата : 4 кадра
    Идентификатор кодека : V_MPEG4/ISO/AVC
    Продолжительность : 1 ч. 32 м.
    Битрейт : 19, 0 Мбит/сек
    Ширина : 1920 пикселей
    Высота : 960 пикселей
    Соотношение сторон : 2, 000
    Режим частоты кадров : Постоянный
    Частота кадров : 23, 976 (24000/1001) кадра/сек
    Цветовое пространство : YUV
    Субдискретизация насыщенности : 4: 2: 0
    Битовая глубина : 8 бит
    Тип развёртки : Прогрессивная
    Бит/(Пиксели*Кадры) : 0.431
    Размер потока : 12, 3 Гбайт (93%)
    Библиотека кодирования : x264 core 144 r2525 40bb568
    Настройки программы : cabac=1/ref=4/deblock=1: -3: -3/analyse=0x3: 0x133/me=umh/subme=10/psy=1/psy_rd=1.00: 0.00/mixed_ref=1/me_range=32/chroma_me=1/trellis=2/8x8dct=1/cqm=0/deadzone=21, 11/fast_pskip=0/chroma_qp_offset=-2/threads=12/lookahead_threads=2/sliced_threads=0/nr=0/decimate=0/interlaced=0/bluray_compat=0/constrained_intra=0/bframes=8/b_pyramid=2/b_adapt=2/b_bias=0/direct=3/weightb=1/open_gop=0/weightp=2/keyint=250/keyint_min=23/scenecut=40/intra_refresh=0/rc=crf/mbtree=0/crf=18.0/qcomp=0.60/qpmin=0/qpmax=69/qpstep=4/ip_ratio=1.40/pb_ratio=1.30/aq=3: 0.80
    Язык : English
    Default : Да
    Forced : Нет
    Аудио #1
    Идентификатор : 2
    Формат : AC-3
    Формат/Информация : Audio Coding 3
    Коммерческое название : Dolby Digital
    Идентификатор кодека : A_AC3
    Продолжительность : 1 ч. 32 м.
    Вид битрейта : Постоянный
    Битрейт : 384 Кбит/сек
    Каналы : 6 каналов
    ChannelLayout : L R C LFE Ls Rs
    Частота : 48, 0 КГц
    Частота кадров : 31, 250 кадров/сек (1536 SPF)
    Метод сжатия : С потерями
    Размер потока : 254 Мбайт (2%)
    Язык : Russian
    ServiceKind/String : Complete Main
    Default : Да
    Forced : Да
    Аудио #2
    Идентификатор : 3
    Формат : AC-3
    Формат/Информация : Audio Coding 3
    Коммерческое название : Dolby Digital
    Идентификатор кодека : A_AC3
    Продолжительность : 1 ч. 32 м.
    Вид битрейта : Постоянный
    Битрейт : 640 Кбит/сек
    Каналы : 6 каналов
    ChannelLayout : L R C LFE Ls Rs
    Частота : 48, 0 КГц
    Частота кадров : 31, 250 кадров/сек (1536 SPF)
    Метод сжатия : С потерями
    Размер потока : 423 Мбайт (3%)
    Язык : English
    ServiceKind/String : Complete Main
    Default : Нет
    Forced : Нет
    Текст #1
    Идентификатор : 4
    Формат : UTF-8
    Идентификатор кодека : S_TEXT/UTF8
    Идентификатор кодека/Информация : UTF-8 Plain Text
    Заголовок : Full (iTunes)
    Язык : Russian
    Default : Нет
    Forced : Нет
    Текст #2
    Идентификатор : 5
    Формат : UTF-8
    Идентификатор кодека : S_TEXT/UTF8
    Идентификатор кодека/Информация : UTF-8 Plain Text
    Язык : English
    Default : Нет
    Forced : Нет
    Меню
    00: 00: 00.000 : : Chapter 01
    00: 04: 58.507 : : Chapter 02
    00: 07: 39.376 : : Chapter 03
    00: 12: 23.159 : : Chapter 04
    00: 16: 57.016 : : Chapter 05
    00: 21: 41.383 : : Chapter 06
    00: 27: 55.799 : : Chapter 07
    00: 32: 11.721 : : Chapter 08
    00: 37: 20.989 : : Chapter 09
    00: 42: 44.854 : : Chapter 10
    00: 45: 11.542 : : Chapter 11
    00: 49: 59.872 : : Chapter 12
    00: 54: 46.450 : : Chapter 13
    01: 00: 30.085 : : Chapter 14
    01: 04: 27.489 : : Chapter 15
    01: 09: 32.627 : : Chapter 16
    01: 12: 15.915 : : Chapter 17
    01: 16: 35.216 : : Chapter 18
    01: 21: 22.836 : : Chapter 19
    01: 27: 13.270 : : Chapter 20

    Скриншоты для ознакомления



    Все одноименные релизы в Клубе Время раздачи: 24/7 (до появления первых 3-5 скачавших)

    Онлайн видео Дождливый день в Нью-Йорке



    Дождливый день в Нью-Йорке/A Rainy Day in New York (2019) BDRip [H.264/1080p]
    Рейтинг →
     (голосов: 1, оценка 4/5, голосовать можно 1 раз )

    Другие торренты по теме:

  • Дождливый день в Нью-Йорке / A Rainy Day in New York (2019) BDRip [H.264]
  • Дождливый день в Нью-Йорке / A Rainy Day in New York (2019) BDRip [1080p] ATV
  • Panda Kopanda: Amefuri Circus no Maki | Panda! Go, Panda!: Rainy Day Circus | Большая панда и маленькая панда: Дождливый день в цирке [1973, Movie] BDRip 1080p 10-bit raw+eng+rus
  • Дождливый день в Нью-Йорке / A Rainy Day in New York (2019) BDRemux [H.264 / 1080p]
  • Дождливый день в Нью-Йорке / A Rainy Day in New York (2019) BDRip
  • Дождливый день в Нью-Йорке / A Rainy Day in New York (2019) BDRip [H.264 / 720p]
  • Дождливый день в Нью-Йорке / A Rainy Day in New York (2019) BDRip [H.264]


    • Комментарии (0):

      Информация

      Информация

        Посетители, находящиеся в группе Гости, не могут оставлять комментарии в данной новости.

        ↓ Меню




        ↓ Опрос

        Вы добавили сайт в закладки?
        Да
        Нет


        Популярное