.
Авторизация | Регистрация
bitok.xyz
» » Джуди / Judy (2019) BDRip торрент скачать бесплатно


    Джуди / Judy (2019) BDRip торрент скачать бесплатно

    Дата: 1-01-2020, 05:00 | .torrent скачали: 0

    Джуди / Judy (2019) BDRipПроизводство: Великобритания/BBC Films, Calamity Films, Pathe UK
    Жанр: Драма, мелодрама, биография
    Режиссер: Руперт Гулд

    Актеры
    Рене Зеллвегер, Финн Уиттрок, Джесси Бакли, Руфус Сьюэлл, Майкл Гэмбон, Ричард Кордери, Ройс Пирресон, Дарси Шоу, Энди Найман, Дэниэл Серкера

    Описание

    Фильм рассказывает о последних концертах голливудской звезды Джуди Гарлэнд в Лондоне в 1968 году. Звезда Волшебника страны Оз готовится к шоу, ссорится с руководством, очаровывает музыкантов. Это хрупкая женщина, которую истощили годы тяжелой работы и тоска по детям.

    Возраст: 16+ (зрителям, достигшим 16 лет)
    Рейтинг MPAA: PG-13 (детям до 13 лет просмотр нежелателен)
    Дата мировой премьеры: 30 августа 2019
    Дата премьеры в России: 17 октября 2019

    Продолжительность: 01: 58: 18
    Качество видео: BDRip
    Перевод: Дублированный (iTunes)
    Субтитры: Отсутствуют
    Видео: XviD, 720x304, ~1368 Kbps
    Аудио: AC-3, 6 ch, 384 Kbps
    Общее
    Полное имя : D: NNMДжудиJudy.2019.BDRip.avi
    Формат : AVI
    Формат/Информация : Audio Video Interleave
    Профиль формата : OpenDML
    Размер файла : 1, 46 Гбайт
    Продолжительность : 1 ч. 58 м.
    Общий поток : 1765 Кбит/сек
    Программа кодирования : XviD4PSP 6.0/53.6.0
    Видео
    Идентификатор : 0
    Формат : MPEG-4 Visual
    Профиль формата : Advanced Simple@L5
    Настройки формата : BVOP1/Custom Matrix
    Параметр BVOP формата : 1
    Параметр QPel формата : Нет
    Параметр GMC формата : Без точки перехода
    Параметр матрицы формата : Выборочная
    Идентификатор кодека : XVID
    Идентификатор кодека/Подсказка : XviD
    Продолжительность : 1 ч. 58 м.
    Битрейт : 1369 Кбит/сек
    Ширина : 720 пикселей
    Высота : 304 пикселя
    Соотношение сторон : 2, 35: 1
    Частота кадров : 23, 976 (23976/1000) кадра/сек
    Цветовое пространство : YUV
    Субдискретизация насыщенности : 4: 2: 0
    Битовая глубина : 8 бит
    Тип развёртки : Прогрессивная
    Метод сжатия : С потерями
    Бит/(Пиксели*Кадры) : 0.261
    Размер потока : 1, 13 Гбайт (78%)
    Библиотека кодирования : XviD 73
    Аудио
    Идентификатор : 1
    Формат : AC-3
    Формат/Информация : Audio Coding 3
    Коммерческое название : Dolby Digital
    Идентификатор кодека : 2000
    Продолжительность : 1 ч. 58 м.
    Вид битрейта : Постоянный
    Битрейт : 384 Кбит/сек
    Каналы : 6 каналов
    ChannelLayout : L R C LFE Ls Rs
    Частота : 48, 0 КГц
    Частота кадров : 31, 250 кадров/сек (1536 SPF)
    Битовая глубина : 16 бит
    Метод сжатия : С потерями
    Размер потока : 325 Мбайт (22%)
    Выравнивание : Соединение по промежуткам
    Продолжительность промежутка : 32 мс. (0, 77 видеокадр)
    ServiceKind/String : Complete Main

    Скриншоты для ознакомления



    Все одноименные релизы в Клубе Время раздачи: 24/7 (до появления первых 3-5 скачавших)

    Онлайн видео Джуди



    Джуди/Judy (2019) BDRip
    Рейтинг →
     (голосов: 1, оценка 3/5, голосовать можно 1 раз )

    Другие торренты по теме:

  • Джуди / Judy (2019) BDRip [H.264 / 1080p]
  • Джуди / Judy (2019) BDRemux [H.264 / 1080p]
  • Святая Джуди / Saint Judy (2018) WEB-DL [H.264 / 1080p-LQ]


    • Комментарии (0):

      Информация

      Информация

        Посетители, находящиеся в группе Гости, не могут оставлять комментарии в данной новости.

        ↓ Меню




        ↓ Опрос

        Вы добавили сайт в закладки?
        Да
        Нет


        Популярное