.
Авторизация | Регистрация
bitok.xyz
» » Джуди / Judy (2019) BDRip [H.264 / 1080p] торрент скачать бесплатно

    Джуди / Judy (2019) BDRip [H.264 / 1080p] торрент скачать бесплатно

    Дата: 1-01-2020, 05:00 | .torrent скачали: 0

    Джуди / Judy (2019) BDRip [H.264 / 1080p]Производство: Великобритания/BBC Films, Calamity Films, Pathe UK
    Жанр: Драма, мелодрама, биография
    Режиссер: Руперт Гулд

    Актеры
    Рене Зеллвегер, Финн Уиттрок, Джесси Бакли, Руфус Сьюэлл, Майкл Гэмбон, Ричард Кордери, Ройс Пирресон, Дарси Шоу, Энди Найман, Дэниэл Серкера

    Описание

    Фильм рассказывает о последних концертах голливудской звезды Джуди Гарлэнд в Лондоне в 1968 году. Звезда Волшебника страны Оз готовится к шоу, ссорится с руководством, очаровывает музыкантов. Это хрупкая женщина, которую истощили годы тяжелой работы и тоска по детям.

    Возраст: 16+ (зрителям, достигшим 16 лет)
    Рейтинг MPAA: PG-13 (детям до 13 лет просмотр нежелателен)
    Дата мировой премьеры: 30 августа 2019
    Дата премьеры в России: 17 октября 2019

    Продолжительность: 01: 58: 18
    Качество видео: BDRip (1080p)
    Перевод: Дублированный (iTunes)
    Субтитры: Английские
    Видео: AVC/H.264, 1920x804, ~7968 Kbps
    Аудио #1: AC3, 6 ch, 384 Kbps - Русский
    Аудио #2: AC3, 6 ch, 448 Kbps - Английский
    Общее
    Уникальный идентификатор : 248733334686291031186995869553717774395 (0xBB204C38F2C375FFA2BF93A7F701883B)
    Полное имя : D: NNMДжудиJudy.2019.BDRip.1080p.mkv
    Формат : Matroska
    Версия формата : Version 4
    Размер файла : 7, 27 Гбайт
    Продолжительность : 1 ч. 58 м.
    Общий поток : 8796 Кбит/сек
    Дата кодирования : UTC 2019-12-31 19: 52: 53
    Программа кодирования : mkvmerge v9.5.0 (\'Quiet Fire\') 64bit
    Библиотека кодирования : libebml v1.3.4 + libmatroska v1.4.5
    Видео
    Идентификатор : 1
    Формат : AVC
    Формат/Информация : Advanced Video Codec
    Профиль формата : High@L4.1
    Настройки формата : CABAC/5 Ref Frames
    Параметр CABAC формата : Да
    Параметр RefFrames формата : 5 кадров
    Идентификатор кодека : V_MPEG4/ISO/AVC
    Продолжительность : 1 ч. 58 м.
    Битрейт : 7968 Кбит/сек
    Ширина : 1920 пикселей
    Высота : 804 пикселя
    Соотношение сторон : 2, 40: 1
    Режим частоты кадров : Постоянный
    Частота кадров : 23, 976 (24000/1001) кадра/сек
    Цветовое пространство : YUV
    Субдискретизация насыщенности : 4: 2: 0
    Битовая глубина : 8 бит
    Тип развёртки : Прогрессивная
    Бит/(Пиксели*Кадры) : 0.215
    Размер потока : 6, 58 Гбайт (91%)
    Заголовок : Sisendrovich(R)
    Библиотека кодирования : x264 core 157 r2958 57baac4
    Настройки программы : cabac=1/ref=5/deblock=1: -1: -1/analyse=0x3: 0x133/me=tesa/subme=11/psy=1/psy_rd=1.00: 0.00/mixed_ref=1/me_range=32/chroma_me=1/trellis=2/8x8dct=1/cqm=0/deadzone=21, 11/fast_pskip=0/chroma_qp_offset=-2/threads=17/lookahead_threads=4/sliced_threads=0/nr=0/decimate=0/interlaced=0/bluray_compat=0/constrained_intra=0/bframes=12/b_pyramid=2/b_adapt=2/b_bias=0/direct=3/weightb=1/open_gop=0/weightp=2/keyint=240/keyint_min=23/scenecut=40/intra_refresh=0/rc_lookahead=120/rc=2pass/mbtree=0/bitrate=7968/ratetol=1.0/qcomp=0.70/qpmin=0/qpmax=69/qpstep=4/cplxblur=20.0/qblur=0.5/vbv_maxrate=50000/vbv_bufsize=62500/nal_hrd=none/filler=0/ip_ratio=1.40/pb_ratio=1.30/aq=3: 0.90
    Язык : English
    Default : Да
    Forced : Нет
    Цветовой диапазон : Limited
    Основные цвета : BT.709
    Характеристики трансфера : BT.709
    Коэффициенты матрицы : BT.709
    Аудио #1
    Идентификатор : 2
    Формат : AC-3
    Формат/Информация : Audio Coding 3
    Коммерческое название : Dolby Digital
    Идентификатор кодека : A_AC3
    Продолжительность : 1 ч. 58 м.
    Вид битрейта : Постоянный
    Битрейт : 384 Кбит/сек
    Каналы : 6 каналов
    ChannelLayout : L R C LFE Ls Rs
    Частота : 48, 0 КГц
    Частота кадров : 31, 250 кадров/сек (1536 SPF)
    Метод сжатия : С потерями
    Размер потока : 325 Мбайт (4%)
    Заголовок : rus
    Язык : Russian
    ServiceKind/String : Complete Main
    Default : Да
    Forced : Нет
    Аудио #2
    Идентификатор : 3
    Формат : AC-3
    Формат/Информация : Audio Coding 3
    Коммерческое название : Dolby Digital
    Идентификатор кодека : A_AC3
    Продолжительность : 1 ч. 58 м.
    Вид битрейта : Постоянный
    Битрейт : 448 Кбит/сек
    Каналы : 6 каналов
    ChannelLayout : L R C LFE Ls Rs
    Частота : 48, 0 КГц
    Частота кадров : 31, 250 кадров/сек (1536 SPF)
    Метод сжатия : С потерями
    Размер потока : 379 Мбайт (5%)
    Заголовок : eng
    Язык : English
    ServiceKind/String : Complete Main
    Default : Нет
    Forced : Нет
    Текст
    Идентификатор : 4
    Формат : UTF-8
    Идентификатор кодека : S_TEXT/UTF8
    Идентификатор кодека/Информация : UTF-8 Plain Text
    Продолжительность : 1 ч. 49 м.
    Битрейт : 58 бит/сек
    ElementCount : 1655
    Размер потока : 47, 0 Кбайт (0%)
    Заголовок : engFull
    Язык : English
    Default : Нет
    Forced : Нет
    Меню
    00: 00: 00.000 : : Chapter 01
    00: 05: 35.335 : : Chapter 02
    00: 13: 02.615 : : Chapter 03
    00: 21: 21.905 : : Chapter 04
    00: 28: 03.682 : : Chapter 05
    00: 35: 43.141 : : Chapter 06
    00: 45: 33.731 : : Chapter 07
    00: 50: 26.023 : : Chapter 08
    00: 57: 15.140 : : Chapter 09
    01: 04: 23.484 : : Chapter 10
    01: 12: 23.255 : : Chapter 11
    01: 20: 22.818 : : Chapter 12
    01: 30: 48.443 : : Chapter 13
    01: 35: 09.328 : : Chapter 14
    01: 40: 34.028 : : Chapter 15
    01: 51: 18.672 : : Chapter 16

    Скриншоты для ознакомления



    Все одноименные релизы в Клубе Время раздачи: 24/7 (до появления первых 3-5 скачавших)

    Онлайн видео Джуди


    Прямая ссылка скачивания через uTorrent


    Джуди/Judy (2019) BDRip [H.264/1080p]
    Рейтинг →
     (голосов: 1, оценка 4/5, голосовать можно 1 раз )

    Другие торренты по теме:

  • Джуди / Judy (2019) BDRip
  • Джуди / Judy (2019) BDRemux [H.264 / 1080p]
  • Святая Джуди / Saint Judy (2018) WEB-DL [H.264 / 1080p-LQ]


    • Комментарии (0):

      Информация

      Информация

        Посетители, находящиеся в группе Гости, не могут оставлять комментарии в данной новости.

        ↓ Меню




        ↓ Опрос

        Вы добавили сайт в закладки?
        Да
        Нет


        Популярное