.
Авторизация | Регистрация
bitok.xyz
» » Малефисента: Владычица тьмы / Maleficent: Mistress of Evil (2019) WEB-DLRip [H.264] торрент скачать бесплатно


    Малефисента: Владычица тьмы / Maleficent: Mistress of Evil (2019) WEB-DLRip [H.264] торрент скачать бесплатно

    Дата: 1-01-2020, 05:00 | .torrent скачали: 0

    Малефисента: Владычица тьмы / Maleficent: Mistress of Evil (2019) WEB-DLRip [H.264]Производство: США, Великобритания/Roth Films, Walt Disney Pictures
    Жанр: Фэнтези, приключения, семейный
    Режиссер: Хоаким Роннинг
    Продюсер: Анджелина Джоли, Брайан Х. Кэрролл, Chris Castaldi

    Актеры
    Анджелина Джоли, Элль Фэннинг, Харрис Дикинсон, Мишель Пфайффер, Сэм Райли, Чиветел Эджиофор, Эд Скрейн, Роберт Линдсей, Дэвид Гяси, Дженн Мюррэй

    Описание

    Действие происходит через несколько лет после того, как Малефисента наложила злые чары на принцессу Аврору. Фильм рассказывает про сложную взаимосвязь между тёмной феей и будущей королевой, о новых союзниках и противниках в деле защиты волшебного леса и магических существах, которые в нем обитают.

    Возраст: 6+ (зрителям, достигшим 6 лет)
    Рейтинг MPAA: PG (рекомендуется присутствие родителей)
    Дата мировой премьеры: 16 октября 2019
    Дата российской премьеры: 17 октября 2019, WDSSPR
    Релиз от: OlLanDGroup
    Продолжительность: 01: 58: 49
    Качество видео: WEB-DLRip
    Перевод: Дублированный (iTunes)
    Субтитры: Русские (Full, SDH), английские
    Видео: AVC/H.264, 720x302, ~812 kbps
    Аудио: AAC, 2 ch, 64 kbps - Русский (iTunes)
    General
    Unique ID : 172044731696248849936644935599987828317 (0x816E9C2C8CF06B73FF899FBDAA87265D)
    Complete name : C: UsersSkandarVideosMaleficent.Mistress.of.Evil.2019.WEB-DLRip(AVC).OlLanDGroup.mkv
    Format : Matroska
    Format version : Version 4
    File size : 746 MiB
    Duration : 1 h 58 min
    Overall bit rate : 878 kb/s
    Movie name : Maleficent.Mistress.of.Evil.2019.WEB-DLRip(AVC).OlLanDGroup#Skandar#
    Encoded date : UTC 2019-12-31 13: 19: 19
    Writing application : mkvmerge v31.0.0 (\'Dolores In A Shoestand\') 64-bit
    Writing library : libebml v1.3.6 + libmatroska v1.4.9
    Video
    ID : 1
    Format : AVC
    Format/Info : Advanced Video Codec
    Format profile : High@L4.1
    Format settings : CABAC/10 Ref Frames
    Format settings, CABAC : Yes
    Format settings, ReFrames : 10 frames
    Codec ID : V_MPEG4/ISO/AVC
    Duration : 1 h 58 min
    Bit rate : 812 kb/s
    Width : 720 pixels
    Height : 302 pixels
    Display aspect ratio : 2.40: 1
    Frame rate mode : Constant
    Frame rate : 23.976 (24000/1001) FPS
    Color space : YUV
    Chroma subsampling : 4: 2: 0
    Bit depth : 8 bits
    Scan type : Progressive
    Bits/(Pixel*Frame) : 0.156
    Stream size : 690 MiB (92%)
    Title : Maleficent.Mistress.of.Evil.2019.WEB-DLRip(AVC).OlLanDGroup#Skandar#
    Writing library : x264 core 146 r2538 121396c
    Encoding settings : cabac=1/ref=10/deblock=1: -3: -3/analyse=0x3: 0x133/me=umh/subme=11/psy=1/psy_rd=0.97: 0.05/mixed_ref=1/me_range=48/chroma_me=1/trellis=2/8x8dct=1/cqm=0/deadzone=21, 11/fast_pskip=0/chroma_qp_offset=-3/threads=6/lookahead_threads=1/sliced_threads=0/nr=0/decimate=0/interlaced=0/bluray_compat=0/constrained_intra=0/bframes=11/b_pyramid=2/b_adapt=2/b_bias=0/direct=3/weightb=1/open_gop=0/weightp=2/keyint=240/keyint_min=23/scenecut=40/intra_refresh=0/rc_lookahead=40/rc=2pass/mbtree=0/bitrate=812/ratetol=1.0/qcomp=0.60/qpmin=0/qpmax=69/qpstep=4/cplxblur=20.0/qblur=0.5/vbv_maxrate=50000/vbv_bufsize=62500/nal_hrd=none/filler=0/ip_ratio=1.40/pb_ratio=1.30/aq=1: 1.00
    Language : English
    Default : Yes
    Forced : No
    Audio
    ID : 2
    Format : AAC LC SBR
    Format/Info : Advanced Audio Codec Low Complexity with Spectral Band Replication
    Commercial name : HE-AAC
    Format settings : Explicit
    Codec ID : A_AAC-2
    Duration : 1 h 58 min
    Bit rate : 64.0 kb/s
    Channel(s) : 2 channels
    Channel layout : L R
    Sampling rate : 48.0 kHz
    Frame rate : 23.438 FPS (2048 SPF)
    Compression mode : Lossy
    Delay relative to video : 31 ms
    Stream size : 54.4 MiB (7%)
    Title : DUB | iTunes
    Language : Russian
    Default : Yes
    Forced : No
    Text #1
    ID : 3
    Format : UTF-8
    Codec ID : S_TEXT/UTF8
    Codec ID/Info : UTF-8 Plain Text
    Duration : 1 h 57 min
    Bit rate : 47 b/s
    Count of elements : 1011
    Stream size : 40.5 KiB (0%)
    Title : Full
    Language : Russian
    Default : No
    Forced : No
    Text #2
    ID : 4
    Format : UTF-8
    Codec ID : S_TEXT/UTF8
    Codec ID/Info : UTF-8 Plain Text
    Duration : 1 h 50 min
    Bit rate : 69 b/s
    Count of elements : 1560
    Stream size : 56.3 KiB (0%)
    Title : SDH
    Language : Russian
    Default : No
    Forced : No
    Text #3
    ID : 5
    Format : UTF-8
    Codec ID : S_TEXT/UTF8
    Codec ID/Info : UTF-8 Plain Text
    Duration : 1 h 49 min
    Bit rate : 31 b/s
    Count of elements : 1021
    Stream size : 25.5 KiB (0%)
    Title : Full
    Language : English
    Default : No
    Forced : No
    Menu
    00: 00: 00.000 : en: 1
    00: 06: 47.240 : en: 2
    00: 09: 11.008 : en: 3
    00: 14: 44.883 : en: 4
    00: 19: 27.164 : en: 5
    00: 23: 09.885 : en: 6
    00: 33: 51.233 : en: 7
    00: 39: 09.593 : en: 8
    00: 42: 18.906 : en: 9
    00: 48: 31.319 : en: 10
    00: 52: 44.070 : en: 11
    00: 57: 14.465 : en: 12
    00: 59: 25.470 : en: 13
    01: 05: 46.893 : en: 14
    01: 09: 31.074 : en: 15
    01: 19: 06.566 : en: 16
    01: 22: 47.870 : en: 17
    01: 29: 08.541 : en: 18
    01: 34: 59.975 : en: 19
    01: 44: 25.832 : en: 20
    01: 51: 06.315 : en: 21

    Скриншоты для ознакомления




    Все одноименные релизы в Клубе
    Время раздачи: 24/7 (круглосуточно) (до появления первых 3-5 скачавших)

    Онлайн видео Малефисента: Владычица тьмы



    Малефисента: Владычица тьмы/Maleficent: Mistress of Evil (2019) WEB-DLRip [H.264]
    Рейтинг →
     (голосов: 1, оценка 3/5, голосовать можно 1 раз )

    Другие торренты по теме:

  • Малефисента: Владычица тьмы / Maleficent: Mistress of Evil (2019) CAMRip [H.264 / 720p-LQ] [AD]
  • Малефисента: Владычица тьмы / Maleficent: Mistress of Evil (2019) WEB-DLRip
  • Малефисента: Владычица тьмы / Maleficent: Mistress of Evil (2019) WEB-DL [H.264 / 720p]
  • Малефисента: Владычица тьмы / Maleficent: Mistress of Evil (2019) WEB-DL [H.264 / 1080p-LQ]
  • Малефисента: Владычица тьмы / Maleficent: Mistress of Evil (2019) WEB-DL [H.264 / 1080p]
  • Малефисента: Владычица тьмы / Maleficent: Mistress of Evil (2019) WEB-DLRip [H.264]
  • Малефисента: Владычица тьмы / Maleficent: Mistress of Evil (2019) BDRip [H.264 / 1080p] [PR]
  • Малефисента: Владычица тьмы / Maleficent: Mistress of Evil (2019) WEBRip [H.264 / 720p-LQ]


    • Комментарии (0):

      Информация

      Информация

        Посетители, находящиеся в группе Гости, не могут оставлять комментарии в данной новости.

        ↓ Меню




        ↓ Опрос

        Вы добавили сайт в закладки?
        Да
        Нет


        Популярное