.
Авторизация | Регистрация
bitok.xyz
» » Небо измеряется милями (2019) CAMRip [AD] торрент скачать бесплатно


    Небо измеряется милями (2019) CAMRip [AD] торрент скачать бесплатно

    Дата: 1-01-2020, 05:00 | .torrent скачали: 0

    Небо измеряется милями (2019) CAMRip [AD]Производство: Россия
    Жанр: Военный, история, драма, биография
    Режиссер: Константин Буслов

    Актеры
    Евгений Стычкин, Марьяна Спивак, Андрей Мерзликин, Максим Битюков, Алексей Розин, Евгений Пеккер, Петр Кислов, Петар Зекавица, Мария Шумакова, Александр Рапопорт

    Описание

    О жизни и судьбе легендарного советского конструктора вертолетов Михаила Леонтьевича Миля. Он создал самый массовый в мире вертолет Ми-8. Он создал самый мощный транспортный вертолет в мире – Ми-12.Трудный путь гениального авиаконструктора, десятилетиями преодолевавшего недоверие людей к его идеям, тесно переплетен с драматической историей его жизни. Миль с детства любил небо и на протяжении всей своей непростой жизни шел за мечтой...

    Возраст: 12+ (зрителям, достигшим 12 лет)
    Дата российской премьеры: 19 декабря 2019
    Продолжительность: 01: 28: 34
    Качество видео: CamRip
    Перевод: Не требуется (русский)
    Субтитры: Отсутствуют
    Реклама: присутствует вставки видео, аудио, текстовая
    Видео: Xvid, 720x352, ~1815 Kbps
    Аудио: AC3, 2 ch, 384 Kbps
    Общее
    Полное имя : F: Nebo.izmeryaetca.milyami.2019.avi
    Формат : AVI
    Формат/Информация : Audio Video Interleave
    Размер файла : 1, 37 Гбайт
    Продолжительность : 1 ч. 28 м.
    Общий поток : 2208 Кбит/сек
    Программа кодирования : VirtualDubMod 1.5.10.3 |www.virtualdub-fr.org|| (build 2550/release)
    Библиотека кодирования : VirtualDubMod build 2550/release
    Видео
    Идентификатор : 0
    Формат : MPEG-4 Visual
    Профиль формата : Advanced Simple@L5
    Настройки формата : BVOP2/Custom Matrix
    Параметр BVOP формата : 2
    Параметр QPel формата : Нет
    Параметр GMC формата : Без точки перехода
    Параметр матрицы формата : Выборочная
    Идентификатор кодека : XVID
    Идентификатор кодека/Подсказка : XviD
    Продолжительность : 1 ч. 28 м.
    Битрейт : 1815 Кбит/сек
    Ширина : 720 пикселей
    Высота : 352 пикселя
    Соотношение сторон : 2, 045
    Частота кадров : 23, 976 (24000/1001) кадра/сек
    Цветовое пространство : YUV
    Субдискретизация насыщенности : 4: 2: 0
    Битовая глубина : 8 бит
    Тип развёртки : Прогрессивная
    Метод сжатия : С потерями
    Бит/(Пиксели*Кадры) : 0.299
    Размер потока : 1, 12 Гбайт (82%)
    Библиотека кодирования : XviD 1.2.1 (UTC 2008-12-04)
    Аудио
    Идентификатор : 1
    Формат : AC-3
    Формат/Информация : Audio Coding 3
    Коммерческое название : Dolby Digital
    Идентификатор кодека : 2000
    Продолжительность : 1 ч. 28 м.
    Вид битрейта : Постоянный
    Битрейт : 384 Кбит/сек
    Каналы : 2 канала
    ChannelLayout : L R
    Частота : 48, 0 КГц
    Частота кадров : 31, 250 кадров/сек (1536 SPF)
    Метод сжатия : С потерями
    Размер потока : 243 Мбайт (17%)
    Выравнивание : Разделение по промежуткам
    Продолжительность промежутка : 42 мс. (1, 00 видеокадр)
    Время предзагрузки промежутка : 500 мс.
    ServiceKind/String : Complete Main

    Скриншоты для ознакомления



    Все одноименные релизы в Клубе
    Время раздачи: 24/7 (круглосуточно) (до появления первых 3-5 скачавших)

    Онлайн видео Малефисента: Владычица тьмы



    Небо измеряется милями (2019) CAMRip [AD]
    Рейтинг →
     (голосов: 1, оценка 5/5, голосовать можно 1 раз )

    Другие торренты по теме:

  • Алекс Нагорный и др. | Падение в небо. Легион уходит в бой. Последняя схватка. (2019) [MP3]
  • А.В. Засов. Лекция «Радио небо». Цикл «Разноцветное небо» (2014) WEBRip [H.264] [MP4|1920х1080]
  • А.В. Засов. Лекция «Инфракрасное небо». Цикл «Разноцветное небо» (2014) WEBRip [H.264] [MP4|1920х1080]
  • А.В. Засов. Лекция «Рентгеновское небо». Цикл «Разноцветное небо» (2014) WEBRip [H.264] [MP4|1920х1080]
  • Майкл Дрисколл | Звёздное небо. Путешествие в ночное небо. Звезды, планеты, галактики (2015) [PDF]
  • Небо падших (2014) WEBRip
  • Небо падших (2014) WEBRip
  • Обнимая небо (2013) HDTVRip [H.264] (Сезон 1, Серия 1-12 из 12)


    • Комментарии (0):

      Информация

      Информация

        Посетители, находящиеся в группе Гости, не могут оставлять комментарии в данной новости.

        ↓ Меню




        ↓ Опрос

        Вы добавили сайт в закладки?
        Да
        Нет


        Популярное