.
Авторизация | Регистрация
bitok.xyz
» » Глория Белл / Gloria Bell (2018) BDRip [H.264 / 1080p] [PR] торрент скачать бесплатно


    Глория Белл / Gloria Bell (2018) BDRip [H.264 / 1080p] [PR] торрент скачать бесплатно

    Дата: 1-01-2020, 05:00 | .torrent скачали: 0

    Глория Белл / Gloria Bell (2018) BDRip [H.264 / 1080p] [PR]Производство: Чили, США/Fabula, FilmNation Entertainment
    Жанр: Драма, мелодрама, комедия
    Режиссер: Себастьян Лелио

    Актеры
    Джулианна Мур, Джон Туртурро, Карен Писториус, Майкл Сера, Брэд Гэррет, Холланд Тейлор, Джинн Трипплхорн, Рита Уилсон, Крис Малки, Касси Томсон

    Описание

    Глории за пятьдесят, она разведена, а взрослые дети живут своей жизнью. Надеясь на новую любовь, Глория коротает вечера и ночи в клубах для возрастных одиночек Лос-Анджелеса. Она заводит страстный роман, однако прошлое остается висеть мертвым грузом...

    Рейтинг MPAA: R (лицам до 17 лет обязательно присутствие взрослого)
    Дата мировой премьеры: 7 сентября 2018
    Продолжительность: 01: 41: 58
    Качество видео: BDRip (1080p)
    Перевод: Профессиональный многоголосый (iTunes)
    Субтитры: Русские (full), украинские (full), английские (full, SDH)
    Видео: AVC/H.264, 1920x800, ~14, 1 Mbps
    Аудио #1: AC3, 6 ch, 384 Kbps - Русский
    Аудио #2: AC3, 6 ch, 640 Kbps - Английский
    Общее
    Уникальный идентификатор : 132295284384307716241489473543386267624 (0x6387251CBBE8A7479CAEF31C78217FE8)
    Полное имя : D: NNMГлория БеллGloria.Bell.2018.BDRip.1080p.mkv
    Формат : Matroska
    Версия формата : Version 4
    Размер файла : 10, 8 Гбайт
    Продолжительность : 1 ч. 41 м.
    Общий поток : 15, 2 Мбит/сек
    Название фильма : Gloria Bell 2018 from селезень
    Дата кодирования : UTC 2019-12-30 21: 06: 55
    Программа кодирования : mkvmerge v40.0.0 (\'Old Town Road + Pony\') 64-bit
    Библиотека кодирования : libebml v1.3.9 + libmatroska v1.5.2
    Видео
    Идентификатор : 1
    Формат : AVC
    Формат/Информация : Advanced Video Codec
    Профиль формата : High@L4.1
    Настройки формата : CABAC/5 Ref Frames
    Параметр CABAC формата : Да
    Параметр RefFrames формата : 5 кадров
    Идентификатор кодека : V_MPEG4/ISO/AVC
    Продолжительность : 1 ч. 41 м.
    Битрейт : 14, 1 Мбит/сек
    Ширина : 1920 пикселей
    Высота : 800 пикселей
    Соотношение сторон : 2, 40: 1
    Режим частоты кадров : Постоянный
    Частота кадров : 23, 976 (24000/1001) кадра/сек
    Цветовое пространство : YUV
    Субдискретизация насыщенности : 4: 2: 0
    Битовая глубина : 8 бит
    Тип развёртки : Прогрессивная
    Бит/(Пиксели*Кадры) : 0.384
    Размер потока : 10, 1 Гбайт (93%)
    Заголовок : DON
    Библиотека кодирования : x264 core 157 r2970+47 cae74a0 t_mod_New 0-bit@all X86_64
    Настройки программы : cabac=1/ref=5/deblock=1: -3: -3/analyse=0x3: 0x133/me=umh/subme=10/psy=1/fade_compensate=0.00/psy_rd=1.03: 0.00/mixed_ref=1/me_range=32/chroma_me=1/trellis=2/8x8dct=1/cqm=0/deadzone=21, 11/fast_pskip=0/chroma_qp_offset=-2/threads=12/lookahead_threads=2/sliced_threads=0/nr=0/decimate=0/interlaced=0/bluray_compat=0/constrained_intra=0/fgo=0/bframes=9/b_pyramid=2/b_adapt=2/b_bias=0/direct=3/weightb=1/open_gop=0/weightp=2/keyint=250/keyint_min=23/scenecut=40/intra_refresh=0/rc=crf/mbtree=0/crf=16.1000/qcomp=0.60/qpmin=0: 0: 0/qpmax=69: 69: 69/qpstep=4/ip_ratio=1.30/pb_ratio=1.20/aq=3: 0.78/aq-sensitivity=10.00/aq-factor=1.00: 1.00: 1.00/aq2=0/aq3=0/zones=1236, 1525, crf=14.1/2417, 4789, crf=14.3/6120, 6506, crf=15.1/17791, 18648, crf=14.2/22727, 23599, crf=14.3/44728, 45152, crf=14.4/45349, 46489, crf=15.1/107407, 108287, crf=15.1/116416, 117364, crf=14.2/136195, 139039, crf=14.3
    Язык : English
    Default : Да
    Forced : Нет
    Аудио #1
    Идентификатор : 2
    Формат : AC-3
    Формат/Информация : Audio Coding 3
    Коммерческое название : Dolby Digital
    Идентификатор кодека : A_AC3
    Продолжительность : 1 ч. 41 м.
    Вид битрейта : Постоянный
    Битрейт : 384 Кбит/сек
    Каналы : 6 каналов
    ChannelLayout : L R C LFE Ls Rs
    Частота : 48, 0 КГц
    Частота кадров : 31, 250 кадров/сек (1536 SPF)
    Метод сжатия : С потерями
    Размер потока : 280 Мбайт (3%)
    Заголовок : iTunes
    Язык : Russian
    ServiceKind/String : Complete Main
    Default : Да
    Forced : Да
    Аудио #2
    Идентификатор : 3
    Формат : AC-3
    Формат/Информация : Audio Coding 3
    Коммерческое название : Dolby Digital
    Идентификатор кодека : A_AC3
    Продолжительность : 1 ч. 41 м.
    Вид битрейта : Постоянный
    Битрейт : 640 Кбит/сек
    Каналы : 6 каналов
    ChannelLayout : L R C LFE Ls Rs
    Частота : 48, 0 КГц
    Частота кадров : 31, 250 кадров/сек (1536 SPF)
    Метод сжатия : С потерями
    Размер потока : 467 Мбайт (4%)
    Заголовок : Original
    Язык : English
    ServiceKind/String : Complete Main
    Default : Нет
    Forced : Нет
    Текст #1
    Идентификатор : 4
    Формат : UTF-8
    Идентификатор кодека : S_TEXT/UTF8
    Идентификатор кодека/Информация : UTF-8 Plain Text
    Продолжительность : 1 ч. 40 м.
    Битрейт : 67 бит/сек
    ElementCount : 987
    Размер потока : 49, 8 Кбайт (0%)
    Заголовок : Full
    Язык : Russian
    Default : Нет
    Forced : Нет
    Текст #2
    Идентификатор : 5
    Формат : UTF-8
    Идентификатор кодека : S_TEXT/UTF8
    Идентификатор кодека/Информация : UTF-8 Plain Text
    Продолжительность : 1 ч. 39 м.
    Битрейт : 60 бит/сек
    ElementCount : 986
    Размер потока : 43, 9 Кбайт (0%)
    Заголовок : Full
    Язык : Ukrainian
    Default : Нет
    Forced : Нет
    Текст #3
    Идентификатор : 6
    Формат : UTF-8
    Идентификатор кодека : S_TEXT/UTF8
    Идентификатор кодека/Информация : UTF-8 Plain Text
    Продолжительность : 1 ч. 33 м.
    Битрейт : 48 бит/сек
    ElementCount : 1103
    Размер потока : 33, 3 Кбайт (0%)
    Заголовок : Full
    Язык : English
    Default : Нет
    Forced : Нет
    Текст #4
    Идентификатор : 7
    Формат : UTF-8
    Идентификатор кодека : S_TEXT/UTF8
    Идентификатор кодека/Информация : UTF-8 Plain Text
    Продолжительность : 1 ч. 35 м.
    Битрейт : 55 бит/сек
    ElementCount : 1264
    Размер потока : 39, 0 Кбайт (0%)
    Заголовок : SDH
    Язык : English
    Default : Нет
    Forced : Нет
    Меню
    00: 00: 00.000 : : Chapter 1
    00: 12: 58.820 : : Chapter 2
    00: 27: 00.702 : : Chapter 3
    00: 40: 29.344 : : Chapter 4
    00: 55: 03.425 : : Chapter 5
    01: 09: 01.763 : : Chapter 6
    01: 21: 48.737 : : Chapter 7
    01: 36: 40.086 : : Chapter 8

    Скриншоты для ознакомления



    Все одноименные релизы в Клубе Время раздачи: 24/7 (до появления первых 3-5 скачавших)

    Онлайн видео Глория Белл



    Глория Белл/Gloria Bell (2018) BDRip [H.264/1080p] [PR]
    Рейтинг →
     (голосов: 1, оценка 4/5, голосовать можно 1 раз )

    Другие торренты по теме:

  • Глория Белл / Gloria Bell (2018) WEB-DLRip [MVO] [AD]
  • Глория Белл / Gloria Bell (2018) BDRip [MVO]
  • Глория Белл / Gloria Bell (2018) BDRip [H.264 / 1080p] [MVO] [PR]
  • Глория Белл / Gloria Bell (2018) BDRip
  • Глория Белл / Gloria Bell (2018) BDRip [H.264]


    • Комментарии (0):

      Информация

      Информация

        Посетители, находящиеся в группе Гости, не могут оставлять комментарии в данной новости.

        ↓ Меню




        ↓ Опрос

        Вы добавили сайт в закладки?
        Да
        Нет


        Популярное