.
Авторизация | Регистрация
bitok.xyz
» » Чёрный и синий / Black and Blue (2019) WEB-DLRip торрент скачать бесплатно


    Чёрный и синий / Black and Blue (2019) WEB-DLRip торрент скачать бесплатно

    Дата: 1-01-2020, 05:00 | .torrent скачали: 0

    Чёрный и синий / Black and Blue (2019) WEB-DLRipПроизводство: США/Hidden Empire Film Group, Royal Viking Entertainment, Screen Gems
    Жанр: Боевик, триллер, драма, криминал
    Режиссер: Деон Тейлор

    Актеры
    Наоми Харрис, Фрэнк Грилло, Майк Колтер, Рейд Скотт, Тайриз Гибсон, Нафиса Уильямс, Бо Напп, Кеннет Кинт Брайан, Майкл Пападжон, Денин Тайлер

    Описание

    Камера закрепленная на теле полицейской-новобранца из Детройта фиксирует факты коррупционных связей местной полиции и криминальных банд. И теперь, чтобы уничтожить отснятый материал, на главную героиню устраивают масштабную облаву.

    Рейтинг MPAA: R (лицам до 17 лет обязательно присутствие взрослого)
    Дата мировой премьеры: 21 сентября 2019
    Продолжительность: 01: 47: 55
    Качество видео: WEB-DLRip
    Перевод: Профессиональный многоголосый (iTunes)
    Субтитры: Русские (full), украинские (full), английские (full) - отдельно
    Видео: XviD, 704x288, ~1542 Kbps
    Аудио #1: AC3, 2 ch, 192 Kbps - Русский
    Аудио #2: AC3, 2 ch, 192 Kbps - Английский
    Общее
    Полное имя : D: NNMЧёрный и синийBlack.and.Blue.2019.WEB-DLRipBlack.and.Blue.2019.WEB-DLRip.avi
    Формат : AVI
    Формат/Информация : Audio Video Interleave
    Размер файла : 1, 46 Гбайт
    Продолжительность : 1 ч. 47 м.
    Общий поток : 1940 Кбит/сек
    Программа кодирования : VirtualDubMod 1.5.10.3 |www.virtualdub-fr.org|| (build 2550/release)
    Библиотека кодирования : VirtualDubMod build 2550/release
    Видео
    Идентификатор : 0
    Формат : MPEG-4 Visual
    Профиль формата : Advanced Simple@L5
    Настройки формата : BVOP1/Custom Matrix
    Параметр BVOP формата : 1
    Параметр QPel формата : Нет
    Параметр GMC формата : Без точки перехода
    Параметр матрицы формата : Выборочная
    Идентификатор кодека : XVID
    Идентификатор кодека/Подсказка : XviD
    Продолжительность : 1 ч. 47 м.
    Битрейт : 1542 Кбит/сек
    Ширина : 704 пикселя
    Высота : 288 пикселей
    Соотношение сторон : 2, 40: 1
    Частота кадров : 23, 976 (24000/1001) кадра/сек
    Цветовое пространство : YUV
    Субдискретизация насыщенности : 4: 2: 0
    Битовая глубина : 8 бит
    Тип развёртки : Прогрессивная
    Метод сжатия : С потерями
    Бит/(Пиксели*Кадры) : 0.317
    Размер потока : 1, 16 Гбайт (79%)
    Библиотека кодирования : XviD 73
    Аудио #1
    Идентификатор : 1
    Формат : AC-3
    Формат/Информация : Audio Coding 3
    Коммерческое название : Dolby Digital
    Идентификатор кодека : 2000
    Продолжительность : 1 ч. 47 м.
    Вид битрейта : Постоянный
    Битрейт : 192 Кбит/сек
    Каналы : 2 канала
    ChannelLayout : L R
    Частота : 48, 0 КГц
    Частота кадров : 31, 250 кадров/сек (1536 SPF)
    Метод сжатия : С потерями
    Размер потока : 148 Мбайт (10%)
    Выравнивание : Разделение по промежуткам
    Продолжительность промежутка : 42 мс. (1, 00 видеокадр)
    Время предзагрузки промежутка : 500 мс.
    ServiceKind/String : Complete Main
    Аудио #2
    Идентификатор : 2
    Формат : AC-3
    Формат/Информация : Audio Coding 3
    Коммерческое название : Dolby Digital
    Идентификатор кодека : 2000
    Продолжительность : 1 ч. 47 м.
    Вид битрейта : Постоянный
    Битрейт : 192 Кбит/сек
    Каналы : 2 канала
    ChannelLayout : L R
    Частота : 48, 0 КГц
    Частота кадров : 31, 250 кадров/сек (1536 SPF)
    Метод сжатия : С потерями
    Размер потока : 148 Мбайт (10%)
    Выравнивание : Разделение по промежуткам
    Продолжительность промежутка : 42 мс. (1, 00 видеокадр)
    Время предзагрузки промежутка : 500 мс.
    ServiceKind/String : Complete Main

    Скриншоты для ознакомления



    Все одноименные релизы в Клубе
    Время раздачи: 24/7 (до появления первых 3-5 скачавших)

    Онлайн видео Чёрный и синий



    Чёрный и синий/Black and Blue (2019) WEB-DLRip
    Рейтинг →
     (голосов: 1, оценка 4/5, голосовать можно 1 раз )

    Другие торренты по теме:

  • Чёрный и синий / Black and Blue (2019) WEB-DL [H.264 / 1080p-LQ]
  • Чёрный и синий / Black and Blue (2019) BDRip [H.264 / 1080p]


    • Комментарии (0):

      Информация

      Информация

        Посетители, находящиеся в группе Гости, не могут оставлять комментарии в данной новости.

        ↓ Меню




        ↓ Опрос

        Вы добавили сайт в закладки?
        Да
        Нет


        Популярное