.
Авторизация | Регистрация
bitok.xyz
» » Малефисента: Владычица тьмы / Maleficent: Mistress of Evil (2019) WEB-DLRip [H.264] торрент скачать бесплатно


    Малефисента: Владычица тьмы / Maleficent: Mistress of Evil (2019) WEB-DLRip [H.264] торрент скачать бесплатно

    Дата: 1-01-2020, 05:00 | .torrent скачали: 0

    Малефисента: Владычица тьмы / Maleficent: Mistress of Evil (2019) WEB-DLRip [H.264]Производство: США, Великобритания/Roth Films, Walt Disney Pictures
    Жанр: фэнтези, приключения, семейный
    Режиссер: Хоаким Роннинг

    Актеры
    Анджелина Джоли, Элль Фэннинг, Харрис Дикинсон, Мишель Пфайффер, Сэм Райли, Чиветел Эджиофор, Эд Скрейн, Роберт Линдсей, Дэвид Гяси, Дженн Мюррэй

    Описание

    Действие происходит через несколько лет после того, как Малефисента наложила злые чары на принцессу Аврору. Фильм рассказывает про сложную взаимосвязь между тёмной феей и будущей королевой, о новых союзниках и противниках в деле защиты волшебного леса и магических существах, которые в нем обитают.

    Возраст: 6+ (зрителям, достигшим 6 лет)
    Рейтинг MPAA: PG (рекомендуется присутствие родителей)
    Дата мировой премьеры: 16 октября 2019
    Дата российской премьеры: 17 октября 2019, WDSSPR
    Продолжительность: 01: 58: 49
    Качество видео: WEB-DLRip
    Перевод: Дублированный (iTunes)
    Субтитры: Русские (Full, SDH) , Английские (Full)
    Видео: AVC/H.264, 1024x428, ~2058 kbps
    Аудио 1: АС3, 6 ch, 384 Kbps, Русский (DUB iTunes)
    Аудио 2: AC3, 6 ch, 384 Kbps, Английский
    Общее
    Уникальный идентификатор : 206056076369597590899599444187103203956 (0x9B04F4EEE63D2FAD8BEB06C9B0E19274)
    Полное имя : D: FILMSZALIVMaleficent.Mistress.of.Evil.2019.WEB-DL.AVC.mkv
    Формат : Matroska
    Версия формата : Version 2
    Размер файла : 2, 35 Гбайт
    Продолжительность : 1 ч. 58 м.
    Общий поток : 2828 Кбит/сек
    Название фильма : Maleficent Mistress of Evil 2019 from ExKinoRay
    Дата кодирования : UTC 2019-12-31 01: 50: 53
    Программа кодирования : mkvmerge v5.6.0 (\'Kenya Kane\') built on May 27 2012 16: 44: 04
    Библиотека кодирования : libebml v1.2.3 + libmatroska v1.3.0
    Видео
    Идентификатор : 1
    Формат : AVC
    Формат/Информация : Advanced Video Codec
    Профиль формата : High@L4.1
    Настройки формата : CABAC/11 Ref Frames
    Параметр CABAC формата : Да
    Параметр RefFrames формата : 11 кадров
    Идентификатор кодека : V_MPEG4/ISO/AVC
    Продолжительность : 1 ч. 58 м.
    Битрейт : 2058 Кбит/сек
    Ширина : 1024 пикселя
    Высота : 428 пикселей
    Соотношение сторон : 2, 40: 1
    Режим частоты кадров : Постоянный
    Частота кадров : 23, 976 (23976/1000) кадра/сек
    Цветовое пространство : YUV
    Субдискретизация насыщенности : 4: 2: 0
    Битовая глубина : 8 бит
    Тип развёртки : Прогрессивная
    Бит/(Пиксели*Кадры) : 0.196
    Размер потока : 1, 66 Гбайт (71%)
    Заголовок : Enigma
    Библиотека кодирования : x264 core 152 r2851 ba24899
    Настройки программы : cabac=1/ref=11/deblock=1: -2: -2/analyse=0x3: 0x113/me=umh/subme=10/psy=1/psy_rd=1.05: 0.10/mixed_ref=1/me_range=32/chroma_me=1/trellis=2/8x8dct=1/cqm=0/deadzone=21, 11/fast_pskip=0/chroma_qp_offset=-3/threads=12/lookahead_threads=3/sliced_threads=0/nr=0/decimate=0/interlaced=0/bluray_compat=0/constrained_intra=0/bframes=10/b_pyramid=2/b_adapt=2/b_bias=0/direct=3/weightb=1/open_gop=0/weightp=2/keyint=240/keyint_min=23/scenecut=40/intra_refresh=0/rc=2pass/mbtree=0/bitrate=2058/ratetol=1.0/qcomp=0.60/qpmin=0/qpmax=51/qpstep=4/cplxblur=20.0/qblur=0.5/ip_ratio=1.40/pb_ratio=1.30/aq=1: 1.00
    Язык : English
    Default : Да
    Forced : Нет
    Цветовой диапазон : Limited
    Основные цвета : BT.709
    Характеристики трансфера : BT.709
    Коэффициенты матрицы : BT.709
    Аудио #1
    Идентификатор : 2
    Формат : AC-3
    Формат/Информация : Audio Coding 3
    Коммерческое название : Dolby Digital
    Идентификатор кодека : A_AC3
    Продолжительность : 1 ч. 58 м.
    Вид битрейта : Постоянный
    Битрейт : 384 Кбит/сек
    Каналы : 6 каналов
    ChannelLayout : L R C LFE Ls Rs
    Частота : 48, 0 КГц
    Частота кадров : 31, 250 кадров/сек (1536 SPF)
    Метод сжатия : С потерями
    Размер потока : 326 Мбайт (14%)
    Заголовок : iTunes
    Язык : Russian
    ServiceKind/String : Complete Main
    Default : Да
    Forced : Да
    Аудио #2
    Идентификатор : 3
    Формат : AC-3
    Формат/Информация : Audio Coding 3
    Коммерческое название : Dolby Digital
    Идентификатор кодека : A_AC3
    Продолжительность : 1 ч. 58 м.
    Вид битрейта : Постоянный
    Битрейт : 384 Кбит/сек
    Каналы : 6 каналов
    ChannelLayout : L R C LFE Ls Rs
    Частота : 48, 0 КГц
    Частота кадров : 31, 250 кадров/сек (1536 SPF)
    Метод сжатия : С потерями
    Размер потока : 326 Мбайт (14%)
    Заголовок : Original
    Язык : English
    ServiceKind/String : Complete Main
    Default : Нет
    Forced : Нет
    Текст #1
    Идентификатор : 4
    Формат : UTF-8
    Идентификатор кодека : S_TEXT/UTF8
    Идентификатор кодека/Информация : UTF-8 Plain Text
    Заголовок : Full
    Язык : Russian
    Default : Нет
    Forced : Нет
    Текст #2
    Идентификатор : 5
    Формат : UTF-8
    Идентификатор кодека : S_TEXT/UTF8
    Идентификатор кодека/Информация : UTF-8 Plain Text
    Заголовок : SDH
    Язык : Russian
    Default : Нет
    Forced : Нет
    Текст #3
    Идентификатор : 6
    Формат : UTF-8
    Идентификатор кодека : S_TEXT/UTF8
    Идентификатор кодека/Информация : UTF-8 Plain Text
    Заголовок : Full
    Язык : English
    Default : Нет
    Forced : Нет
    Меню
    00: 00: 00.000 : en: 1
    00: 06: 47.240 : en: 2
    00: 09: 11.008 : en: 3
    00: 14: 44.883 : en: 4
    00: 19: 27.164 : en: 5
    00: 23: 09.885 : en: 6
    00: 33: 51.233 : en: 7
    00: 39: 09.593 : en: 8
    00: 42: 18.906 : en: 9
    00: 48: 31.319 : en: 10
    00: 52: 44.070 : en: 11
    00: 57: 14.465 : en: 12
    00: 59: 25.470 : en: 13
    01: 05: 46.893 : en: 14
    01: 09: 31.074 : en: 15
    01: 19: 06.566 : en: 16
    01: 22: 47.870 : en: 17
    01: 29: 08.541 : en: 18
    01: 34: 59.975 : en: 19
    01: 44: 25.832 : en: 20
    01: 51: 06.315 : en: 21

    Скриншоты для ознакомления



    Все одноименные релизы в Клубе
    Время раздачи: 24/7 (до появления первых 3-5 скачавших)

    Онлайн видео Малефисента: Владычица тьмы



    Малефисента: Владычица тьмы/Maleficent: Mistress of Evil (2019) WEB-DLRip [H.264]
    Рейтинг →
     (голосов: 1, оценка 5/5, голосовать можно 1 раз )

    Другие торренты по теме:

  • Малефисента: Владычица тьмы / Maleficent: Mistress of Evil (2019) UHD BDRip [H.265 / 2160p-LQ] [4K, HDR, 10-bit] [PR]
  • Малефисента: Владычица тьмы / Maleficent: Mistress of Evil (2019) CAMRip [H.264 / 720p-LQ] [AD]
  • Малефисента: Владычица тьмы / Maleficent: Mistress of Evil (2019) WEB-DLRip
  • Малефисента: Владычица тьмы / Maleficent: Mistress of Evil (2019) WEB-DL [H.264 / 720p]
  • Малефисента: Владычица тьмы / Maleficent: Mistress of Evil (2019) WEB-DL [H.264 / 1080p-LQ]
  • Малефисента: Владычица тьмы / Maleficent: Mistress of Evil (2019) WEB-DLRip [H.264]
  • Малефисента: Владычица тьмы / Maleficent: Mistress of Evil (2019) WEB-DL [H.264 / 1080p]
  • Малефисента: Владычица тьмы / Maleficent: Mistress of Evil (2019) BDRip [H.264 / 1080p] [PR]


    • Комментарии (0):

      Информация

      Информация

        Посетители, находящиеся в группе Гости, не могут оставлять комментарии в данной новости.

        ↓ Меню




        ↓ Опрос

        Вы добавили сайт в закладки?
        Да
        Нет


        Популярное