.
Авторизация | Регистрация
bitok.xyz
» » Перспектива / Prospect (2018) BDRemux [MPEG-2 / 1080p] торрент скачать бесплатно


    Перспектива / Prospect (2018) BDRemux [MPEG-2 / 1080p] торрент скачать бесплатно

    Дата: 1-01-2020, 05:00 | .torrent скачали: 0

    Перспектива / Prospect (2018) BDRemux [MPEG-2 / 1080p]Производство: Канада, США/Depth of Field, Ground Control, BRON Studios
    Жанр: Фантастика, триллер, драма
    Режиссер: Кристофер Колдуэлл, Зик Эрл
    Продюсер: Дэн Багойен, Гаррик Дион, Скотт Глассголд

    Актеры
    Софи Тэтчер, Педро Паскаль, Джей Дюпласс, Люк Питцрик, Артур Деранло, Андре Ройо, Алекс Макколи, Даг Доусон, Криста Джонсон, Брайан Гюнтер

    Описание
    Отец с дочерью отправляются на отдалённую планету, где планируют собирать драгоценные камни, сокрытые в глубине лесов. Добыв один, они натыкаются на двух опасных конкурентов. Из-за недопонимания и жадности между ними происходит перестрелка, в результате которой один из встреченных и отец погибают. Теперь, чтобы выжить на враждебной планете с ядовитой атмосферой, девушке придётся сотрудничать с оставшимся в живых незнакомцем.

    Рейтинг MPAA: R Лицам до 17 обязательно присутствие взрослых
    Дата мировой премьеры: 10 марта 2018
    Цифровой релиз: 30 декабря 2019, Новый Фильм
    Релиз от: NNMClub
    Продолжительность: 01: 39: 47
    Качество видео: BDRemux 1080p
    Перевод: Профессиональный (дублированный)(iTunes)
    Субтитры: Русские, Английские
    Видео: MPEG 2, 1920x1080, 25.0 Mbps, 23.976 fps
    Аудио 1 : AC-3, 6 ch, 384 Kbps | Русский
    Аудио 2 : DTS-HD MA, 6 ch, 1800 Kbps | Английский
    General
    Unique ID : 95709527011722404291582315780702314611 (0x4800FC01DE2D1634BF451F426D09A073)
    Complete name : /Volumes/Promise 2/Prospect.BDRemux.1080p.pk.mkv
    Format : Matroska
    Format version : Version 4
    File size : 19.0 GiB
    Duration : 1h 39mn
    Overall bit rate mode : Variable
    Overall bit rate : 27.2 Mbps
    Movie name : Prospect BDRemux 1080p pk
    Encoded date : UTC 2019-12-31 01: 21: 24
    Writing application : mkvmerge v41.0.0 (\'Smarra\') 64-bit
    Writing library : libebml v1.3.9 + libmatroska v1.5.2
    Video
    ID : 1
    Format : MPEG Video
    Format version : Version 2
    Format profile : Main@High
    Format settings : BVOP
    Format settings, BVOP : Yes
    Format settings, Matrix : Default
    Format settings, GOP : M=3, N=12
    Codec ID : V_MPEG2
    Codec ID/Info : MPEG 1 or 2 Video
    Duration : 1h 39mn
    Bit rate mode : Variable
    Bit rate : 25.0 Mbps
    Maximum bit rate : 40.0 Mbps
    Width : 1 920 pixels
    Height : 1 080 pixels
    Display aspect ratio : 16: 9
    Frame rate mode : Constant
    Frame rate : 23.976 (24000/1001) fps
    Color space : YUV
    Chroma subsampling : 4: 2: 0
    Bit depth : 8 bits
    Scan type : Progressive
    Compression mode : Lossy
    Bits/(Pixel*Frame) : 0.503
    Time code of first frame : 00: 00: 00: 00
    Time code source : Group of pictures t_head
    GOP, Open/Closed : Closed
    Stream size : 17.4 GiB (92%)
    Language : English
    Default : Yes
    Forced : No
    Audio #1
    ID : 2
    Format : AC-3
    Format/Info : Audio Coding 3
    Commercial name : Dolby Digital
    Codec ID : A_AC3
    Duration : 1h 39mn
    Bit rate mode : Constant
    Bit rate : 384 Kbps
    Channel(s) : 6 channels
    Channel layout : L R C LFE Ls Rs
    Sampling rate : 48.0 KHz
    Frame rate : 31.250 fps (1536 SPF)
    Compression mode : Lossy
    Stream size : 274 MiB (1%)
    Title : Russian DUB iTunes
    Language : Russian
    Service kind : Complete Main
    Default : Yes
    Forced : No
    Audio #2
    ID : 3
    Format : DTS XLL
    Format/Info : Digital Theater Systems
    Commercial name : DTS-HD Master Audio
    Codec ID : A_DTS
    Duration : 1h 39mn
    Bit rate mode : Variable
    Bit rate : 1 800 Kbps
    Channel(s) : 6 channels
    Channel layout : C L R Ls Rs LFE
    Sampling rate : 48.0 KHz
    Frame rate : 93.750 fps (512 SPF)
    Bit depth : 16 bits
    Compression mode : Lossless
    Stream size : 1.25 GiB (7%)
    Title : English Original
    Language : English
    Default : No
    Forced : No
    Text #1
    ID : 4
    Format : UTF-8
    Codec ID : S_TEXT/UTF8
    Codec ID/Info : UTF-8 Plain Text
    Duration : 1h 28mn
    Bit rate : 51 bps
    Count of elements : 663
    Stream size : 33.3 KiB (0%)
    Title : Russian full
    Language : Russian
    Default : No
    Forced : No
    Text #2
    ID : 5
    Format : UTF-8
    Codec ID : S_TEXT/UTF8
    Codec ID/Info : UTF-8 Plain Text
    Duration : 1h 28mn
    Bit rate : 34 bps
    Count of elements : 763
    Stream size : 22.0 KiB (0%)
    Title : English full
    Language : English
    Default : No
    Forced : No
    Menu
    00: 00: 00.083 : en: Chapter 01
    00: 13: 03.365 : en: Chapter 02
    00: 21: 13.855 : en: Chapter 03
    00: 35: 12.193 : en: Chapter 04
    00: 46: 55.395 : en: Chapter 05
    01: 00: 59.739 : en: Chapter 06
    01: 12: 29.928 : en: Chapter 07
    01: 27: 07.805 : en: Chapter 08

    Скриншоты для ознакомления



    Все одноименные релизы в Клубе
    Время раздачи: 24/7 (круглосуточно) (до появления первых 3-5 скачавших)

    Онлайн видео Перспектива



    Перспектива/Prospect (2018) BDRemux [MPEG-2/1080p]
    Рейтинг →
     (голосов: 1, оценка 5/5, голосовать можно 1 раз )

    Другие торренты по теме:

  • Перспектива / Prospect (2018) WEB-DLRip [MVO] [AD]
  • Перспектива / Prospect (2018) WEB-DLRip [H.264 / 1080p-LQ] [MVO]
  • Перспектива / Prospect (2018) WEB-DLRip [H.264 / 720p-LQ]
  • Перспектива / Prospect (2018) WEB-DL [H.264 / 1080p-LQ] [MVO]
  • Перспектива / Prospect (2018) UHD BDRip [H.265 / 2160p] [4K, HDR, 10-bit]
  • Перспектива / Prospect (2018) BDRip [H.264 / 1080p]
  • Перспектива / Prospect (2018) BDRip [H.264]
  • Перспектива / Prospect (2018) BDRip


    • Комментарии (0):

      Информация

      Информация

        Посетители, находящиеся в группе Гости, не могут оставлять комментарии в данной новости.

        ↓ Меню




        ↓ Опрос

        Вы добавили сайт в закладки?
        Да
        Нет


        Популярное