.
Авторизация | Регистрация
bitok.xyz
» » Звериная ярость / Primal (2019) BDRip [H.264 / 1080p-LQ] торрент скачать бесплатно


    Звериная ярость / Primal (2019) BDRip [H.264 / 1080p-LQ] торрент скачать бесплатно

    Дата: 1-01-2020, 05:00 | .torrent скачали: 0

    Звериная ярость / Primal (2019) BDRip [H.264 / 1080p-LQ]Производство: США/Daniel Grodnik Productions, The Wonderfilm Media Corporation, Imprint Entertainment
    Жанр: Боевик
    Режиссер: Ник Пауэлл
    Продюсер: Джефф Боулер, Дэниэл Гродник, Луильо Руис

    Актеры
    Николас Кейдж, Фамке Янссен, Кевин Дюран, Майкл Империоли, ЛаМоника Гаррет, Том Уокер, Рей Эрнандес, Джон Льюис, Браулио Кастильо мл., Сьюэлл Уитни

    Описание
    Охотник и зверолов Фрэнк Уолш промышляет редкими видами животных. Недавно он поймал в дождевых лесах Бразилии белого ягуара и теперь рассчитывает продать его в зоопарк за кругленькую сумму. Но кроме Фрэнка и его живого груза на борту корабля, следующего в Америку, оказывается опасный убийца, который должен предстать перед судом, и которого по медицинским показаниям нельзя перевозить на самолёте. В пути преступник сбегает и выпускает из клеток не только обезьян и ядовитых змей, но и агрессивного ягуара.

    Возраст: 18+ Зрителям, достигшим 18 лет
    Рейтинг MPAA: R Лицам до 17 обязательно присутствие взрослых
    Дата мировой премьеры: 6 ноября 2019
    Цифровой релиз: 24 декабря 2019, Вольга
    Релиз от: NNMClub
    Продолжительность: 01: 36: 51
    Качество видео: BDRip (batonchik )
    Перевод: Дублированный(iTunes)
    Субтитры: Русские (Full), Английские (Full)
    Видео: AVC/H.264, 1280x536p, 5200 Kps, 23.976 fps
    Аудио 1 : AC-3, 6 ch, 384 Kbps | Русский
    Аудио 2: AC-3, 6 ch, 640 Kbps | Английский--Information 28.12.2019 23: 27: 24 Standard error stream
    ---Information 28.12.2019 23: 27: 32 y4m info: 1920x804p 1: 1 @ 500/21 fps (cfr)
    ---Information 28.12.2019 23: 27: 32 x264 info: using SAR=1/1
    ---Information 28.12.2019 23: 27: 32 x264 info: using cpu capabilities: MMX2 SSE2Fast SSSE3 SSE4.2 AVX
    ---Information 28.12.2019 23: 27: 32 x264 info: profile High, level 4.1, 4: 2: 0, 8-bit
    ---Information 29.12.2019 5: 56: 37 x264 info: frame I: 1390 Avg QP: 17.22 size: 132094
    ---Information 29.12.2019 5: 56: 37 x264 info: frame P: 36165 Avg QP: 19.13 size: 52175
    ---Information 29.12.2019 5: 56: 37 x264 info: frame B: 101766 Avg QP: 20.79 size: 16832

    ---Information 29.12.2019 5: 56: 37 x264 info: consecutive B-frames: 4.2% 8.0% 15.6% 14.3% 17.7% 33.2% 4.3% 1.0% 1.8%
    General
    Complete name : Звериная ярость_Primal (2019) BDRip.H.264.1080p.LQ.NNMClub.mkv
    Format : Matroska
    Format version : Version 4
    File size : 4.22 GiB
    Duration : 1 h 36 min
    Overall bit rate : 6 234 kb/s
    Movie name : Звериная ярость_Primal (2019) BDRip.H.264.1080p.LQ.NNMClub
    Encoded date : UTC 2019-12-31 02: 30: 18
    Writing application : mkvmerge v40.0.0 (\'Old Town Road + Pony\') 64-bit
    Writing library : libebml v1.3.9 + libmatroska v1.5.2
    Video
    ID : 1
    Format : AVC
    Format/Info : Advanced Video Codec
    Format profile : High@L4.1
    Format settings : CABAC/5 Ref Frames
    Format settings, CABAC : Yes
    Format settings, Reference frames : 5 frames
    Codec ID : V_MPEG4/ISO/AVC
    Duration : 1 h 36 min
    Bit rate : 5 200 kb/s
    Width : 1 920 pixels
    Height : 804 pixels
    Display aspect ratio : 2.40: 1
    Frame rate mode : Constant
    Frame rate : 23.976 (24000/1001) FPS
    Color space : YUV
    Chroma subsampling : 4: 2: 0
    Bit depth : 8 bits
    Scan type : Progressive
    Bits/(Pixel*Frame) : 0.140
    Stream size : 3.52 GiB (84%)
    Title : Звериная ярость_Primal (2019) BDRip.H.264.1080p.LQ.NNMClub
    Writing library : x264 core 158 r2984 3759fcb
    Encoding settings : cabac=1/ref=5/deblock=1: -3: -3/analyse=0x3: 0x133/me=umh/subme=11/psy=1/psy_rd=1.00: 0.25/mixed_ref=1/me_range=24/chroma_me=1/trellis=2/8x8dct=1/cqm=0/deadzone=6, 6/fast_pskip=0/chroma_qp_offset=-4/threads=12/lookahead_threads=2/sliced_threads=0/nr=0/decimate=0/interlaced=0/bluray_compat=0/constrained_intra=0/bframes=8/b_pyramid=2/b_adapt=2/b_bias=0/direct=1/weightb=1/open_gop=0/weightp=2/keyint=240/keyint_min=23/scenecut=40/intra_refresh=0/rc_lookahead=40/rc=2pass/mbtree=1/bitrate=5200/ratetol=1.0/qcomp=0.60/qpmin=0/qpmax=69/qpstep=4/cplxblur=20.0/qblur=0.5/vbv_maxrate=50000/vbv_bufsize=62500/nal_hrd=none/filler=0/ip_ratio=1.10/aq=3: 0.80
    Language : English
    Default : Yes
    Forced : No
    Audio #1
    ID : 2
    Format : AC-3
    Format/Info : Audio Coding 3
    Commercial name : Dolby Digital
    Codec ID : A_AC3
    Duration : 1 h 36 min
    Bit rate mode : Constant
    Bit rate : 384 kb/s
    Channel(s) : 6 channels
    Channel layout : L R C LFE Ls Rs
    Sampling rate : 48.0 kHz
    Frame rate : 31.250 FPS (1536 SPF)
    Compression mode : Lossy
    Stream size : 266 MiB (6%)
    Title : Дублированный (iTunes)
    Language : Russian
    Service kind : Complete Main
    Default : Yes
    Forced : No
    Audio #2
    ID : 3
    Format : AC-3
    Format/Info : Audio Coding 3
    Commercial name : Dolby Digital
    Codec ID : A_AC3
    Duration : 1 h 36 min
    Bit rate mode : Constant
    Bit rate : 640 kb/s
    Channel(s) : 6 channels
    Channel layout : L R C LFE Ls Rs
    Sampling rate : 48.0 kHz
    Frame rate : 31.250 FPS (1536 SPF)
    Compression mode : Lossy
    Stream size : 443 MiB (10%)
    Title : Оригинал
    Language : English
    Service kind : Complete Main
    Default : No
    Forced : No
    Text #1
    ID : 4
    Format : UTF-8
    Codec ID : S_TEXT/UTF8
    Codec ID/Info : UTF-8 Plain Text
    Duration : 1 h 31 min
    Bit rate : 87 b/s
    Count of elements : 1041
    Stream size : 58.7 KiB (0%)
    Title : Full
    Language : Russian
    Default : No
    Forced : No
    Text #2
    ID : 5
    Format : UTF-8
    Codec ID : S_TEXT/UTF8
    Codec ID/Info : UTF-8 Plain Text
    Duration : 1 h 33 min
    Bit rate : 48 b/s
    Count of elements : 997
    Stream size : 33.4 KiB (0%)
    Title : Full
    Language : English
    Default : No
    Forced : No
    Menu
    00: 00: 00.000 : en: Глава 01
    00: 10: 15.114 : en: Глава 02
    00: 18: 51.464 : en: Глава 03
    00: 24: 53.492 : en: Глава 04
    00: 27: 28.313 : en: Глава 05
    00: 33: 18.830 : en: Глава 06
    00: 42: 31.048 : en: Глава 07
    00: 50: 53.550 : en: Глава 08
    01: 00: 48.186 : en: Глава 09
    01: 06: 42.498 : en: Глава 10
    01: 15: 28.190 : en: Глава 11
    01: 32: 29.711 : en: Глава 12

    Скриншоты для ознакомления



    Все одноименные релизы в Клубе
    Время раздачи: 24/7 (круглосуточно) (до появления первых 3-5 скачавших)

    Онлайн видео Звериная ярость



    Звериная ярость/Primal (2019) BDRip [H.264/1080p-LQ]
    Рейтинг →
     (голосов: 1, оценка 3/5, голосовать можно 1 раз )

    Другие торренты по теме:

  • Звериная ярость / Primal (2019) BDRip [H.264 / 1080p]
  • Звериная ярость / Primal (2019) HDRip
  • Звериная ярость / Primal (2019) HDRip
  • Звериная ярость / Primal (2019) BDRip [H.264 / 720p-LQ]
  • Звериная ярость / Primal (2019) BDRemux [H.264 / 1080p]


    • Комментарии (0):

      Информация

      Информация

        Посетители, находящиеся в группе Гости, не могут оставлять комментарии в данной новости.

        ↓ Меню




        ↓ Опрос

        Вы добавили сайт в закладки?
        Да
        Нет


        Популярное