.
Авторизация | Регистрация
bitok.xyz
» » В компании волков / The Company of Wolves (1984) BDRemux [H.264 / 1080p] [GER Transfer] торрент скачать бесплатно


    В компании волков / The Company of Wolves (1984) BDRemux [H.264 / 1080p] [GER Transfer] торрент скачать бесплатно

    Дата: 1-01-2020, 05:00 | .torrent скачали: 0

    В компании волков / The Company of Wolves (1984) BDRemux [H.264 / 1080p] [GER Transfer]Производство: Великобритания/Incorporated Television Company (ITC), Palace Pictures
    Жанр: Ужасы, Фэнтези, Драма
    Режиссер: Нил Джордан
    Продюсер: Крис Браун, Ник Пауэлл, Стивен Вулли

    Актеры
    Анджела Лэнсбери, Дэвид Уорнер, Грэм Кроуден, Брайан Гловер, Кэтрин Погсон, Стивен Ри, Туссе Сильберг, Миша Бергезе, Сара Пэттерсон, Джорджия Слоу

    Описание

    После того как волк убил сестру на глазах юной Розалин, она нашла приют в доме бабушки, затерявшемся посреди густого леса. От бабушки Розалин узнала страшные истории о невинных девушках, влюбляющихся в прекрасных незнакомцев со сросшимися бровями и горящими глазами, о людях, бесследно исчезающих в пору полнолуния, когда из леса доносится волчий вой.
    Однажды Розалин возвращалась к бабушке по узкой лесной тропинке и повстречала молодого охотника. Он был очень красив, и она не заметила, что его брови срослись на переносице.

    Возраст: 16+ (зрителям, достигшим 16 лет)
    Рейтинг MPAA: R (лицам до 17 лет обязательно присутствие взрослого)
    Релиз от: R.G. Goldenshara
    Продолжительность: 01: 35: 32
    Качество видео: BDRemux 1080p
    Перевод: Многоголосый профессиональный, Двухголосый профессиональный, Авторский
    Субтитры: Русские, Английские
    Видео: AVC/H.264, 1920x1080 (16: 9), ~25.0 Mbps, 23.976 fps
    Аудио #1: AC3, 6 ch, 48.0 KHz, 448 kbps | Русский - (MVO)
    Аудио #2: AC3, 2 ch, 48.0 KHz, 192 kbps | Русский - (DVO ТВ6)
    Аудио #3: AC3, 2 ch, 48.0 KHz, 192 kbps | Русский - (AVO А. Гаврилов)
    Аудио #4: DTS-HD MA, 6 ch, 48.0 KHz, 1992 kbps | Английский
    Аудио #5: DTS-HD MA, 6 ch, 48.0 KHz, 1902 kbps | Немецкий
    General
    Unique ID : 214617772840631294237934614201658438204 (0xA175E128F407F0B9BE57DEADDE36F23C)
    Complete name : E: Мои рипыВ компании волков.1984.BDRemux.1080p.R.G. Goldenshara.mkv
    Format : Matroska
    Format version : Version 4/Version 2
    File size : 19.8 GiB
    Duration : 1h 35mn
    Overall bit rate mode : Variable
    Overall bit rate : 29.7 Mbps
    Movie name : = MediaClub = rip by Painter
    Encoded date : UTC 2019-12-31 18: 15: 46
    Writing application : mkvmerge v6.8.0 (\'Theme for Great Cities\') 64bit built on Mar 2 2014 21: 34: 26
    Writing library : libebml v1.3.0 + libmatroska v1.4.1
    Video
    ID : 1
    Format : AVC
    Format/Info : Advanced Video Codec
    Format profile : High@L4.1
    Format settings, CABAC : Yes
    Format settings, ReFrames : 4 frames
    Codec ID : V_MPEG4/ISO/AVC
    Duration : 1h 35mn
    Bit rate mode : Variable
    Bit rate : 25.2 Mbps
    Maximum bit rate : 34.0 Mbps
    Width : 1 920 pixels
    Height : 1 080 pixels
    Display aspect ratio : 16: 9
    Frame rate mode : Constant
    Frame rate : 23.976 fps
    Standard : NTSC
    Color space : YUV
    Chroma subsampling : 4: 2: 0
    Bit depth : 8 bits
    Scan type : Progressive
    Bits/(Pixel*Frame) : 0.506
    Stream size : 16.8 GiB (85%)
    Language : English
    Default : Yes
    Forced : No
    Color primaries : BT.709
    Transfer characteristics : BT.709
    Matrix coefficients : BT.709
    Audio #1
    ID : 2
    Format : AC-3
    Format/Info : Audio Coding 3
    Mode extension : CM (complete main)
    Format settings, Endianness : Big
    Codec ID : A_AC3
    Duration : 1h 35mn
    Bit rate mode : Constant
    Bit rate : 448 Kbps
    Channel(s) : 6 channels
    Channel positions : Front: L C R, Side: L R, LFE
    Sampling rate : 48.0 KHz
    Bit depth : 16 bits
    Compression mode : Lossy
    Delay relative to video : 16s 0ms
    Stream size : 306 MiB (2%)
    Title : MVO
    Language : Russian
    Default : Yes
    Forced : No
    Audio #2
    ID : 3
    Format : AC-3
    Format/Info : Audio Coding 3
    Mode extension : CM (complete main)
    Format settings, Endianness : Big
    Codec ID : A_AC3
    Duration : 1h 35mn
    Bit rate mode : Constant
    Bit rate : 192 Kbps
    Channel(s) : 2 channels
    Channel positions : Front: L R
    Sampling rate : 48.0 KHz
    Bit depth : 16 bits
    Compression mode : Lossy
    Delay relative to video : 16s 0ms
    Stream size : 131 MiB (1%)
    Title : DVO ТВ6
    Language : Russian
    Default : No
    Forced : No
    Audio #3
    ID : 4
    Format : AC-3
    Format/Info : Audio Coding 3
    Mode extension : CM (complete main)
    Format settings, Endianness : Big
    Codec ID : A_AC3
    Duration : 1h 35mn
    Bit rate mode : Constant
    Bit rate : 192 Kbps
    Channel(s) : 2 channels
    Channel positions : Front: L R
    Sampling rate : 48.0 KHz
    Bit depth : 16 bits
    Compression mode : Lossy
    Delay relative to video : 16s 0ms
    Stream size : 131 MiB (1%)
    Title : AVO А. Гаврилов
    Language : Russian
    Default : No
    Forced : No
    Audio #4
    ID : 5
    Format : DTS
    Format/Info : Digital Theater Systems
    Format profile : MA/Core
    Codec ID : A_DTS
    Duration : 1h 35mn
    Bit rate mode : Variable
    Bit rate : 1 561 Kbps/1 510 Kbps
    Channel(s) : 6 channels
    Channel positions : Front: L C R, Side: L R, LFE
    Sampling rate : 48.0 KHz
    Bit depth : 16 bits
    Compression mode : Lossless/Lossy
    Language : English
    Default : No
    Forced : No
    Audio #5
    ID : 6
    Format : DTS
    Format/Info : Digital Theater Systems
    Format profile : MA/Core
    Codec ID : A_DTS
    Duration : 1h 35mn
    Bit rate mode : Variable
    Bit rate : 1 561 Kbps/1 510 Kbps
    Channel(s) : 6 channels
    Channel positions : Front: L C R, Side: L R, LFE
    Sampling rate : 48.0 KHz
    Bit depth : 16 bits
    Compression mode : Lossless/Lossy
    Language : German
    Default : No
    Forced : No
    Text #1
    ID : 7
    Format : UTF-8
    Codec ID : S_TEXT/UTF8
    Codec ID/Info : UTF-8 Plain Text
    Language : Russian
    Default : No
    Forced : No
    Text #2
    ID : 8
    Format : UTF-8
    Codec ID : S_TEXT/UTF8
    Codec ID/Info : UTF-8 Plain Text
    Language : English
    Default : No
    Forced : No
    Menu
    00: 00: 00.000 : en: Chapter 1
    00: 09: 46.836 : en: Chapter 2
    00: 16: 09.510 : en: Chapter 3
    00: 22: 07.826 : en: Chapter 4
    00: 31: 22.964 : en: Chapter 5
    00: 38: 30.516 : en: Chapter 6
    00: 45: 41.655 : en: Chapter 7
    00: 55: 24.529 : en: Chapter 8
    01: 02: 08.307 : en: Chapter 9
    01: 08: 10.169 : en: Chapter 10
    01: 16: 49.187 : en: Chapter 11
    01: 26: 47.952 : en: Chapter 12
    01: 35: 32.893 : en: Chapter 13

    File: E: Мои рипыВ компании волков.1984.BDRemux.1080p.R.G. Goldenshara.mkv
    Duration: 01: 35: 33 (5732.94)
    Track #1: video
    lang: Unknown (1)
    codc: V_MPEG4/ISO/AVC - H264/AVC (22)
    reso: 1920x1080 (1920x1080) - 16: 9
    fram: 23.976 fps
    rate: 24979 kbps (24979)
    dura: 01: 35: 33 (5732.89)
    size: 16.67 GB (17900255772)
    Track #2: audio (MVO)
    lang: rus - Russian (15)
    codc: A_AC3 - AC3 (2)
    chan: 6 - 5.1 Surround
    samp: 48000 Hz
    rate: 448 kbps (448.05)
    dura: 01: 35: 14 (5714.46)
    size: 305.22 MB (320046832)
    Track #3: audio (DVO ￐ᄁ￐メ6)
    lang: rus - Russian (15)
    codc: A_AC3 - AC3 (2)
    chan: 2 - Stereo
    samp: 48000 Hz
    rate: 192 kbps (192.04)
    dura: 01: 35: 14 (5714.46)
    size: 130.82 MB (137178849)
    Track #4: audio (AVO ￐ミ. ￐モ￐ᄚ￐ᄇ￑タ￐ᄌ￐ᄏ￐ᄒ￐ᄇ)
    lang: rus - Russian (15)
    codc: A_AC3 - AC3 (2)
    chan: 2 - Stereo
    samp: 48000 Hz
    rate: 192 kbps (192.05)
    dura: 01: 35: 14 (5714.46)
    size: 130.83 MB (137181153)
    Track #5: audio
    lang: Unknown (1)
    codc: A_DTS - DTS (13)
    chan: 6 - 5.1 Surround
    samp: 48000 Hz
    rate: 1992 kbps (1992.45)
    dura: 01: 35: 33 (5732.88)
    size: 1.33 GB (1427808910)
    Track #6: audio
    lang: ger - German (5)
    codc: A_DTS - DTS (13)
    chan: 6 - 5.1 Surround
    samp: 48000 Hz
    rate: 1902 kbps (1901.90)
    dura: 01: 35: 33 (5732.88)
    size: 1.27 GB (1362919631)
    Track #7: subtitles
    lang: rus - Russian (15)
    type: S_TEXT/UTF8 - SRT (3)
    size: 29.28 KB (29980)
    Track #8: subtitles
    lang: Unknown (1)
    type: S_TEXT/UTF8 - SRT (3)
    size: 18.96 KB (19411)
    Sizes: (check sanity)
    disk: 19.83 GB (21288698409)
    trac: 3.82 GB (4105571354) based on track size
    bitr: 19.83 GB (21287317497) based on bitrate
    tdif: 16.00 GB (17183127055) 80.71%
    bdif: 1.32 MB (1380911) 0.00%


    Онлайн видео В компании волков



    В компании волков/The Company of Wolves (1984) BDRemux [H.264/1080p] [GER Transfer]
    Рейтинг →
     (голосов: 1, оценка 4/5, голосовать можно 1 раз )

    Другие торренты по теме:

  • В компании с Максом Линдером / En compagnie de Max Linder (1921-1922, 1963) BDRip [H.264 / 720p] [hand made colored] скачать через торрент бесплатно
  • Джим Коллинз | От хорошего к великому. Почему одни компании совершают прорыв, а другие нет (2002) [PDF, DOC, FB2, EPUB] скачать через торрент бесплатно
  • Игорь Манн и др. | Согласовано! Как повысить доходы компании, подружив продажи и маркетинг (2016) [FB2, EPUB, DOCX]
  • Наум Бирман и др. | Вместе с нами по морям. Встреча в кают-компании (1968-1971) [MP3]
  • Ирина Крупичева (сост.) | Большая викторина для веселой компании. 4000 вопросов обо всем на свете (2016) [FB2]
  • Александр Высоцкий | Оргсхема. Как разработать структуру компании (2013) [FB2]
  • VA - Душевный Шансон Для Веселой Компании (2016) [MP3|256-320 Kbps] <Шансон>
  • Xperia™ Home v10.2.A.1.0 [Ru / Multi] - фирменный лаунчер компании SONY


    • Комментарии (0):

      Информация

      Информация

        Посетители, находящиеся в группе Гости, не могут оставлять комментарии в данной новости.

        ↓ Меню




        ↓ Опрос

        Вы добавили сайт в закладки?
        Да
        Нет


        Популярное