.
Авторизация | Регистрация
bitok.xyz
» » Шестое чувство / The sixth sense (1999) HDTVRip [H.264 / 720p] [PR] торрент скачать бесплатно


    Шестое чувство / The sixth sense (1999) HDTVRip [H.264 / 720p] [PR] торрент скачать бесплатно

    Дата: 1-01-2020, 05:00 | .torrent скачали: 0

    Шестое чувство / The sixth sense (1999) HDTVRip [H.264 / 720p] [PR]Производство: США/Barry Mendel Productions, Hollywood Pictures, Spyglass Entertainment, The Kennedy/Marshall Company
    Жанр: детектив, фэнтези, фантастика, триллер, драма
    Режиссер: М. Найт Шьямалан
    Продюсер: Кэтлин Кеннеди, Фрэнк Маршалл, Бэрри Мендел

    Актеры
    Брюс Уиллис, Хэйли Джоэл Осмент, Тони Коллетт, Оливия Уильямс, Донни Уолберг, Питер Энтони Тамбакис, Джеффри Зубернис, Брюс Норрис, Гленн Фицджералд, Миша Бартон

    Описание

    Детский психиатр Малкольм Кроу сталкивается со странным случаем: девятилетнего Коула посещают страшные видения — призраки умерших. Все эти люди когда-то были убиты, и теперь они обрушивают на малыша свой гнетущий страх и отчаянный гнев.
    Как врач Малкольм бессилен помочь. Но как человек он пытается найти ключ к ужасному миру Коула, в котором веет дыханием смерти, и распускаются страшные цветы боли.

    Возраст: 12+ (зрителям, достигшим 12 лет)
    Рейтинг MPAA: PG-13 (детям до 13 лет просмотр нежелателен)
    Продолжительность: 01: 47: 17
    Качество видео: HDTVRip
    Перевод: Дублированный
    Язык озвучки: Русский
    Субтитры: отсутствуют
    Видео: AVC/H.264, 1280x720, ~5375 Kbps
    Аудио: AC3, 6 ch, 384 Kbps
    General
    Unique ID : 133119759224153582634102829761987882395 (0x6425EEDC3ADAEAA58A53E1AE52082D9B)
    Complete name : \2-7a41025c9e104EКинофильмыИностранноеТриллер, детективШестое чувство. (The Sixth Sense). 1999The_Sixth_Sense_720p.mkv
    Format : Matroska
    Format version : Version 1
    File size : 4.32 GiB
    Duration : 1h 47mn
    Overall bit rate : 5 762 Kbps
    Encoded date : UTC 2008-05-17 22: 17: 22
    Writing application : mkvmerge v2.1.0 (\'Another Place To Fall\') built on Apr 13 2008 22: 22: 57
    Writing library : libebml v0.7.7 + libmatroska v0.8.1
    Video
    ID : 1
    Format : AVC
    Format/Info : Advanced Video Codec
    Format profile : High@L5.1
    Format settings, CABAC : Yes
    Format settings, ReFrames : 9 frames
    Codec ID : V_MPEG4/ISO/AVC
    Duration : 1h 47mn
    Bit rate : 5 375 Kbps
    Width : 1 280 pixels
    Height : 720 pixels
    Display aspect ratio : 16: 9
    Frame rate mode : Constant
    Frame rate : 29.970 fps
    Color space : YUV
    Chroma subsampling : 4: 2: 0
    Bit depth : 8 bits
    Scan type : Progressive
    Bits/(Pixel*Frame) : 0.195
    Stream size : 3.94 GiB (91%)
    Title : mencoder_rip
    Writing library : x264 core 56
    Encoding settings : cabac=1/ref=6/deblock=1: 0: 0/analyse=0x3: 0x133/me=umh/subme=7/brdo=1/mixed_ref=0/me_range=32/chroma_me=1/trellis=1/8x8dct=1/cqm=0/deadzone=21, 11/chroma_qp_offset=0/threads=2/nr=0/decimate=1/mbaff=0/bframes=3/b_pyramid=1/b_adapt=1/b_bias=0/direct=1/wpredb=1/bime=1/keyint=250/keyint_min=25/scenecut=40(pre)/rc=2pass/bitrate=5375/ratetol=1.0/rceq=\'blurCplx^(1-qComp)\'/qcomp=0.60/qpmin=10/qpmax=51/qpstep=4/cplxblur=20.0/qblur=0.5/ip_ratio=1.40/pb_ratio=1.30
    Default : Yes
    Forced : No
    Audio
    ID : 2
    Format : AC-3
    Format/Info : Audio Coding 3
    Mode extension : CM (complete main)
    Format settings, Endianness : Big
    Codec ID : A_AC3
    Duration : 1h 47mn
    Bit rate mode : Constant
    Bit rate : 384 Kbps
    Channel(s) : 6 channels
    Channel positions : Front: L C R, Side: L R, LFE
    Sampling rate : 48.0 KHz
    Bit depth : 16 bits
    Compression mode : Lossy
    Stream size : 295 MiB (7%)
    Title : bublyaz_ru
    Language : Russian
    Default : Yes
    Forced : No

    Скриншоты для ознакомления



    Все одноименные релизы в Клубе
    Время раздачи: 24/7 (круглосуточно) (до появления первых 3-5 скачавших)

    Онлайн видео Шестое чувство



    Шестое чувство/The sixth sense (1999) HDTVRip [H.264/720p] [PR]
    Рейтинг →
     (голосов: 1, оценка 4/5, голосовать можно 1 раз )

    Другие торренты по теме:

  • Шестое чувство / The Sixth Sense (1999) BDRip [H.264]
  • Шестое чувство / The Sixth Sense (1999) BDRip скачать через торрент бесплатно
  • Шестое чувство / The Sixth Sense (1999) BDRip [H.265 / 1080p-LQ]
  • Агата Кристи | Шестое чувство (2016) [MP3]
  • Малгожата Мусерович | Целестина, или Шестое чувство (1981) [FB2]
  • Джок Брокас | Шестое чувство: защитите себя и близких (2016) [FB2, EPUB]
  • Шестое чувство Александра Лодыгина (2015) SATRip
  • Шестое чувство / The Sixth Sense (1999) [1080p] BDRip


    • Комментарии (0):

      Информация

      Информация

        Посетители, находящиеся в группе Гости, не могут оставлять комментарии в данной новости.

        ↓ Меню




        ↓ Опрос

        Вы добавили сайт в закладки?
        Да
        Нет


        Популярное