.
Авторизация | Регистрация
bitok.xyz
» » Три дня на побег / The Next Three Days (2010) BDRip [H.264 / 720p] торрент скачать бесплатно


    Три дня на побег / The Next Three Days (2010) BDRip [H.264 / 720p] торрент скачать бесплатно

    Дата: 1-01-2020, 05:00 | .torrent скачали: 0

    Три дня на побег / The Next Three Days (2010) BDRip [H.264 / 720p]Производство: США/Lionsgate, Hwy61, Fidélité Films
    Жанр: боевик, триллер, драма, мелодрама, криминал
    Режиссер: Пол Хаггис

    Актеры
    Рассел Кроу, Элизабет Бэнкс, Джейсон Бех, Аиша Хайндс, Оливия Уайлд, Дэниел Стерн, Хелен Кэри, Брайан Деннехи, Лиам Нисон, Ленни Джеймс

    Описание

    Жизнь Джона казалась идеальной, пока его красавицу жену не арестовали по подозрению в убийстве. Пока Лара сидит в тюрьме, Джон один воспитывает сына и пытается всеми способами доказать ее невиновность.
    Но когда законные способы освободить любимую исчерпаны, единственное, что ему остается — разработать изощренный план побега. Джон готов рискнуть всем ради нее… Но что если она действительно виновна?

    Возраст: 16+ (зрителям, достигшим 16 лет)
    Рейтинг MPAA: PG-13 (детям до 13 лет просмотр нежелателен)
    Продолжительность: 02: 13: 06
    Качество видео: BDRip 720p
    Перевод: Дублированный, многоголосый профессиональный, авторский
    Субтитры: русские, английские
    Видео: AVC/H.264, 1280x544, ~6555 kbps
    Аудио 1: AC3, 6 ch, 640 kbps, Русский (DUB BD RUS)
    Аудио 2: AC3, 6 ch, 640 kbps, Русский (MVO Кубик в кубе)
    Аудио 3: AC3, 6 ch, 640 kbps, Русский (AVO А.Гаврилов)
    Аудио 4: AC3, 6 ch, 640 kbps, Русский (AVO Ю.Сербин)
    Аудио 5: AC3, 6 ch, 640 kbps, Английский
    Общее
    Уникальный идентификатор : 220838333321029926035768565660534726205 (0xA623EA787F7F3C978ECA3C2BFD285E3D)
    Полное имя : D: FILMSZALIVTri.Dnya.na.Pobeg.2010.BDRip.720p.mkv
    Формат : Matroska
    Версия формата : Version 4
    Размер файла : 9, 07 Гбайт
    Продолжительность : 2 ч. 13 м.
    Общий поток : 9751 Кбит/сек
    Название фильма : The Next Three Days (2010) - HELLYWOOD
    Дата кодирования : UTC 2019-12-30 09: 39: 25
    Программа кодирования : mkvmerge v8.2.0 (\'World of Adventure\') 64bit
    Библиотека кодирования : libebml v1.3.1 + libmatroska v1.4.2
    Видео
    Идентификатор : 1
    Формат : AVC
    Формат/Информация : Advanced Video Codec
    Профиль формата : High@L4.1
    Настройки формата : CABAC/9 Ref Frames
    Параметр CABAC формата : Да
    Параметр RefFrames формата : 9 кадров
    Идентификатор кодека : V_MPEG4/ISO/AVC
    Продолжительность : 2 ч. 13 м.
    Битрейт : 6555 Кбит/сек
    Ширина : 1280 пикселей
    Высота : 544 пикселя
    Соотношение сторон : 2, 35: 1
    Режим частоты кадров : Постоянный
    Частота кадров : 23, 976 (24000/1001) кадра/сек
    Цветовое пространство : YUV
    Субдискретизация насыщенности : 4: 2: 0
    Битовая глубина : 8 бит
    Тип развёртки : Прогрессивная
    Бит/(Пиксели*Кадры) : 0.393
    Размер потока : 6, 09 Гбайт (67%)
    Заголовок : potroks
    Библиотека кодирования : x264 core 146 r2538 121396c
    Настройки программы : cabac=1/ref=9/deblock=1: -3: -3/analyse=0x3: 0x113/me=umh/subme=11/psy=1/psy_rd=0.98: 0.01/mixed_ref=1/me_range=56/chroma_me=1/trellis=2/8x8dct=1/cqm=0/deadzone=21, 11/fast_pskip=0/chroma_qp_offset=-3/threads=9/lookahead_threads=2/sliced_threads=0/nr=0/decimate=0/interlaced=0/bluray_compat=0/constrained_intra=0/bframes=10/b_pyramid=2/b_adapt=2/b_bias=0/direct=3/weightb=1/open_gop=0/weightp=2/keyint=250/keyint_min=23/scenecut=40/intra_refresh=0/rc_lookahead=60/rc=2pass/mbtree=0/bitrate=6555/ratetol=1.0/qcomp=0.70/qpmin=0/qpmax=69/qpstep=4/cplxblur=20.0/qblur=0.5/vbv_maxrate=14000/vbv_bufsize=14000/nal_hrd=none/filler=0/ip_ratio=1.40/pb_ratio=1.30/aq=1: 0.80
    Язык : English
    Default : Да
    Forced : Нет
    Аудио #1
    Идентификатор : 2
    Формат : AC-3
    Формат/Информация : Audio Coding 3
    Коммерческое название : Dolby Digital
    Идентификатор кодека : A_AC3
    Продолжительность : 2 ч. 13 м.
    Вид битрейта : Постоянный
    Битрейт : 640 Кбит/сек
    Каналы : 6 каналов
    ChannelLayout : L R C LFE Ls Rs
    Частота : 48, 0 КГц
    Частота кадров : 31, 250 кадров/сек (1536 SPF)
    Метод сжатия : С потерями
    Размер потока : 609 Мбайт (7%)
    Заголовок : Dub | DD 5.1 @ 640 kbps - Blu-Ray RUS
    Язык : Russian
    ServiceKind/String : Complete Main
    Default : Да
    Forced : Нет
    Аудио #2
    Идентификатор : 3
    Формат : AC-3
    Формат/Информация : Audio Coding 3
    Коммерческое название : Dolby Digital
    Идентификатор кодека : A_AC3
    Продолжительность : 2 ч. 13 м.
    Вид битрейта : Постоянный
    Битрейт : 640 Кбит/сек
    Каналы : 6 каналов
    ChannelLayout : L R C LFE Ls Rs
    Частота : 48, 0 КГц
    Частота кадров : 31, 250 кадров/сек (1536 SPF)
    Метод сжатия : С потерями
    Размер потока : 609 Мбайт (7%)
    Заголовок : MVO | DD 5.1 @ 640 kbps - Kubik v Kube
    Язык : Russian
    ServiceKind/String : Complete Main
    Default : Нет
    Forced : Нет
    Аудио #3
    Идентификатор : 4
    Формат : AC-3
    Формат/Информация : Audio Coding 3
    Коммерческое название : Dolby Digital
    Идентификатор кодека : A_AC3
    Продолжительность : 2 ч. 13 м.
    Вид битрейта : Постоянный
    Битрейт : 640 Кбит/сек
    Каналы : 6 каналов
    ChannelLayout : L R C LFE Ls Rs
    Частота : 48, 0 КГц
    Частота кадров : 31, 250 кадров/сек (1536 SPF)
    Метод сжатия : С потерями
    Размер потока : 609 Мбайт (7%)
    Заголовок : AVO | DD 5.1 @ 640 kbps - A.Gavrilov
    Язык : Russian
    ServiceKind/String : Complete Main
    Default : Нет
    Forced : Нет
    Аудио #4
    Идентификатор : 5
    Формат : AC-3
    Формат/Информация : Audio Coding 3
    Коммерческое название : Dolby Digital
    Идентификатор кодека : A_AC3
    Продолжительность : 2 ч. 13 м.
    Вид битрейта : Постоянный
    Битрейт : 640 Кбит/сек
    Каналы : 6 каналов
    ChannelLayout : L R C LFE Ls Rs
    Частота : 48, 0 КГц
    Частота кадров : 31, 250 кадров/сек (1536 SPF)
    Метод сжатия : С потерями
    Размер потока : 609 Мбайт (7%)
    Заголовок : AVO | DD 5.1 @ 640 kbps - Y.Serbin
    Язык : Russian
    ServiceKind/String : Complete Main
    Default : Нет
    Forced : Нет
    Аудио #5
    Идентификатор : 6
    Формат : AC-3
    Формат/Информация : Audio Coding 3
    Коммерческое название : Dolby Digital
    Идентификатор кодека : A_AC3
    Продолжительность : 2 ч. 13 м.
    Вид битрейта : Постоянный
    Битрейт : 640 Кбит/сек
    Каналы : 6 каналов
    ChannelLayout : L R C LFE Ls Rs
    Частота : 48, 0 КГц
    Частота кадров : 31, 250 кадров/сек (1536 SPF)
    Метод сжатия : С потерями
    Размер потока : 609 Мбайт (7%)
    Заголовок : Original | DD 5.1 @ 640 kbps
    Язык : English
    ServiceKind/String : Complete Main
    Default : Нет
    Forced : Нет
    Текст #1
    Идентификатор : 7
    Формат : UTF-8
    Идентификатор кодека : S_TEXT/UTF8
    Идентификатор кодека/Информация : UTF-8 Plain Text
    Продолжительность : 2 ч. 5 м.
    Битрейт : 1 бит/сек
    ElementCount : 34
    Размер потока : 1, 60 Кбайт (0%)
    Заголовок : Forced
    Язык : Russian
    Default : Да
    Forced : Нет
    Текст #2
    Идентификатор : 8
    Формат : UTF-8
    Идентификатор кодека : S_TEXT/UTF8
    Идентификатор кодека/Информация : UTF-8 Plain Text
    Продолжительность : 2 ч. 6 м.
    Битрейт : 60 бит/сек
    ElementCount : 1024
    Размер потока : 55, 8 Кбайт (0%)
    Заголовок : Full
    Язык : Russian
    Default : Нет
    Forced : Нет
    Текст #3
    Идентификатор : 9
    Формат : UTF-8
    Идентификатор кодека : S_TEXT/UTF8
    Идентификатор кодека/Информация : UTF-8 Plain Text
    Продолжительность : 2 ч. 3 м.
    Битрейт : 35 бит/сек
    ElementCount : 1061
    Размер потока : 32, 4 Кбайт (0%)
    Заголовок : Full
    Язык : English
    Default : Нет
    Forced : Нет
    Текст #4
    Идентификатор : 10
    Формат : UTF-8
    Идентификатор кодека : S_TEXT/UTF8
    Идентификатор кодека/Информация : UTF-8 Plain Text
    Продолжительность : 2 ч. 8 м.
    Битрейт : 35 бит/сек
    ElementCount : 1125
    Размер потока : 33, 4 Кбайт (0%)
    Заголовок : SDH
    Язык : English
    Default : Нет
    Forced : Нет
    Текст #5
    Идентификатор : 11
    Формат : UTF-8
    Идентификатор кодека : S_TEXT/UTF8
    Идентификатор кодека/Информация : UTF-8 Plain Text
    Продолжительность : 2 ч. 8 м.
    Битрейт : 40 бит/сек
    ElementCount : 1171
    Размер потока : 38, 4 Кбайт (0%)
    Заголовок : SDH-Colored
    Язык : English
    Default : Нет
    Forced : Нет
    Меню
    00: 00: 00.000 : en: (01)00: 00: 00: 000
    00: 08: 19.956 : en: (02)00: 08: 19: 956
    00: 14: 20.860 : en: (03)00: 14: 20: 860
    00: 22: 15.250 : en: (04)00: 22: 15: 250
    00: 28: 32.919 : en: (05)00: 28: 32: 919
    00: 34: 54.382 : en: (06)00: 34: 54: 382
    00: 43: 24.518 : en: (07)00: 43: 24: 518
    00: 50: 49.880 : en: (08)00: 50: 49: 880
    01: 00: 24.661 : en: (09)01: 00: 24: 661
    01: 07: 04.228 : en: (10)01: 07: 04: 228
    01: 15: 08.795 : en: (11)01: 15: 08: 795
    01: 22: 58.595 : en: (12)01: 22: 58: 595
    01: 28: 38.520 : en: (13)01: 28: 38: 520
    01: 35: 30.430 : en: (14)01: 35: 30: 430
    01: 45: 58.143 : en: (15)01: 45: 58: 143
    01: 51: 46.908 : en: (16)01: 51: 46: 908
    01: 59: 24.989 : en: (17)01: 59: 24: 989
    02: 04: 43.265 : en: (18)02: 04: 43: 265
    02: 13: 05.894 : en: (19)02: 13: 05: 894

    Скриншоты для ознакомления



    Все одноименные релизы в Клубе
    Время раздачи: c 5 до 19 мск (до появления первых 3-5 скачавших)

    Онлайн видео Три дня на побег



    Три дня на побег/The Next Three Days (2010) BDRip [H.264/720p]
    Рейтинг →
     (голосов: 1, оценка 3/5, голосовать можно 1 раз )

    Другие торренты по теме:

  • Три дня на побег / The Next Three Days (2010) BDRip [H.264] скачать через торрент бесплатно
  • Три дня на побег / The Next Three Days (2010) BDRemux [H.264 / 1080p]
  • Три дня на побег / The Next Three Days (2010) BDRip [H.264]
  • Три дня на побег / The Next Three Days (2010) BDRip [H.264 / 1080p] [PR]


    • Комментарии (0):

      Информация

      Информация

        Посетители, находящиеся в группе Гости, не могут оставлять комментарии в данной новости.

        ↓ Меню




        ↓ Опрос

        Вы добавили сайт в закладки?
        Да
        Нет


        Популярное