.
Авторизация | Регистрация
bitok.xyz
» » Клаустрофобия / Escape Room (2017) UHD BDRip [H.265 / 2160p] [4K, HDR, 10-bit] торрент скачать бесплатно


    Клаустрофобия / Escape Room (2017) UHD BDRip [H.265 / 2160p] [4K, HDR, 10-bit] торрент скачать бесплатно

    Дата: 1-01-2020, 05:00 | .torrent скачали: 0

    Клаустрофобия / Escape Room (2017) UHD BDRip [H.265 / 2160p] [4K, HDR, 10-bit]Производство: США/Escape Productions
    Жанр: Ужасы, Триллер
    Режиссер: Уилл Верник
    Продюсер: Келли Дэлсон, Соня Лизетт, Саймон Биррелл

    Актеры
    Ивэн Уильямс, Аннабелл Стивенсон, Элизабет Хауэр, Дэн Дж. Джонсон, Джон Иерарди, Келли Дэлсон, Ирис Чунг, Даррел Черни, Кэти Дайан Томлин, Кали Фредрикс

    Описание

    На день рождения Тайлер получает в подарок от своей девушки Кристен сертификат самого модного развлечения сезон любимого сериалаа — квеста Клаустрофобия. Вместе с двумя другими парами они должны в течение часа разгадать несколько загадок, чтобы выбраться из закрытого помещения. С каждым шагом загадки становятся все сложнее, а опасность все реальнее. Друзья начинают подозревать, что они здесь не случайно, каждый из них — ключ, и если не сложить паззл, квест начинает играть против тебя.

    Возраст: 18+ (зрителям, достигшим 18 лет. запрещено для детей)
    Рейтинг MPAA: R (лицам до 17 лет обязательно присутствие взрослого)
    Релиз от: GASMASK
    Продолжительность: 01: 39: 38
    Качество видео: UHD BDRip
    Перевод: Дублированный (iTunes)
    Субтитры: русские, английские
    Видео: HEVC/H.265, 3840x1608, ~20.1 Mbps
    Аудио 1: AC3, 6 ch, 384 Kbps (английский)
    Аудио 2: AC3, 6 ch, 384 Kbps (русский)
    Общее
    Уникальный идентификатор : 20658556957645766853073435733771893770 (0xF8AB17F131F0987978E7C32F93F3C0A)
    Полное имя : M: ФильмыИностранныеКлаустрофобы (Escape Room).mkv
    Формат : Matroska
    Версия формата : Version 4/Version 2
    Размер файла : 14, 5 Гбайт
    Продолжительность : 1 ч. 39 м.
    Общий поток : 20, 8 Мбит/сек
    Название фильма : Клаустрофобы/Escape Room
    Кодирование произвёл : GASMASK
    Дата выпуска : 2019
    Дата кодирования : UTC 2019-12-01 05: 02: 08
    Программа кодирования : mkvmerge v34.0.0 (\'Sight and Seen\') 64-bit
    Библиотека кодирования : libebml v1.3.7 + libmatroska v1.5.0
    Обложка : Yes
    Attachments : cover.jpg
    Released by : Buba5473 for NNM-Club
    Видео
    Идентификатор : 1
    Формат : HEVC
    Формат/Информация : High Efficiency Video Coding
    Профиль формата : Main10@L5.1@High
    Идентификатор кодека : V_MPEGH/ISO/HEVC
    Продолжительность : 1 ч. 39 м.
    Битрейт : 20, 1 Мбит/сек
    Ширина : 3840 пикселей
    Высота : 1608 пикселей
    Соотношение сторон : 2, 40: 1
    Режим частоты кадров : Постоянный
    Частота кадров : 23, 976 (24000/1001) кадра/сек
    Цветовое пространство : YUV
    Субдискретизация насыщенности : 4: 2: 0 (Type 2)
    Битовая глубина : 10 бит
    Бит/(Пиксели*Кадры) : 0.136
    Размер потока : 14, 0 Гбайт (96%)
    Заголовок : Escape.Room.2019.MULTI.2160p.HDR.WEBRip.DTS-HD.MA.5.1.x265-GASMASK
    Библиотека кодирования : x265 3.0_Au+16-0018ca1ca42f: WindowsGCC 8.3.064 bit 10bit
    Настройки программы : cpuid=1111039/frame-threads=4/numa-pools=28/wpp/no-pmode/no-pme/no-psnr/no-ssim/log-level=2/input-csp=1/input-res=3840x1608/interlace=0/total-frames=143281/level-idc=51/high-tier=1/uhd-bd=0/ref=4/no-allow-non-conformance/repeat-t_heads/annexb/aud/hrd/info/hash=0/no-temporal-layers/no-open-gop/min-keyint=24/keyint=240/gop-lookahead=0/bframes=4/b-adapt=2/b-pyramid/bframe-bias=0/rc-lookahead=25/lookahead-slices=4/scenecut=40/radl=0/no-splice/no-intra-refresh/ctu=64/min-cu-size=8/rect/no-amp/max-tu-size=32/tu-inter-depth=1/tu-intra-depth=1/limit-tu=0/rdoq-level=2/dynamic-rd=0.00/no-ssim-rd/signhide/no-tskip/nr-intra=0/nr-inter=0/no-constrained-intra/no-strong-intra-smoothing/max-merge=3/limit-refs=3/limit-modes/me=3/subme=3/merange=57/temporal-mvp/weightp/no-weightb/no-analyze-src-pics/deblock=-3: -3/no-sao/no-sao-non-deblock/rd=4/no-early-skip/rskip/no-fast-intra/no-tskip-fast/no-cu-lossless/no-b-intra/no-splitrd-skip/rdpenalty=0/psy-rd=2.00/psy-rdoq=1.00/no-rd-refine/no-lossless/cbqpoffs=0/crqpoffs=0/rc=crf/crf=14.0/qcomp=0.60/qpstep=4/stats-write=0/stats-read=0/vbv-maxrate=160000/vbv-bufsize=160000/vbv-init=0.9/crf-max=0.0/crf-min=0.0/ipratio=1.40/pbratio=1.30/aq-mode=1/aq-strength=1.00/cutree/zone-count=0/no-strict-cbr/qg-size=32/no-rc-grain/qpmax=69/qpmin=0/no-const-vbv/sar=0/overscan=0/videoformat=5/range=0/colorprim=9/transfer=16/colormatrix=9/chromaloc=1/chromaloc-top=2/chromaloc-bottom=2/display-window=0/master-display=G(13250, 34500)B(7500, 3000)R(34000, 16000)WP(15635, 16450)L(40000000, 50)/max-cll=9837, 862/min-luma=0/max-luma=1023/log2-max-poc-lsb=8/vui-timing-info/vui-hrd-info/slices=1/no-opt-qp-pps/no-opt-ref-list-length-pps/no-multi-pass-opt-rps/scenecut-bias=0.05/no-opt-cu-delta-qp/no-aq-motion/hdr/hdr-opt/no-dhdr10-opt/no-idr-recovery-sei/analysis-reuse-level=5/scale-factor=0/refine-intra=0/refine-inter=0/refine-mv=0/refine-ctu-distortion=0/no-limit-sao/ctu-info=0/no-lowpass-dct/refine-analysis-type=0/copy-pic=1/max-ausize-factor=1.0/no-dynamic-refine/no-single-sei/no-hevc-aq/no-svt/qp-adaptation-range=1.00
    Default : Да
    Forced : Нет
    Color range : Limited
    Основные цвета : BT.2020
    Характеристики трансфера : SMPTE ST 2084
    Коэффициенты матрицы : BT.2020 non-constant
    Mastering display color primaries : R: x=0.680000 y=0.320000, G: x=0.265000 y=0.690000, B: x=0.150000 y=0.060000, White point: x=0.312700 y=0.329000
    Mastering display luminance : min: 0.0050 cd/m2, max: 4000.0000 cd/m2
    Maximum Content Light Level : 9837 cd/m2
    Maximum Frame-Average Light Level : 862 cd/m2
    Аудио #1
    Идентификатор : 2
    Формат : AC-3
    Формат/Информация : Audio Coding 3
    Параметр Endianness формата : Big
    Идентификатор кодека : A_AC3
    Продолжительность : 1 ч. 39 м.
    Вид битрейта : Постоянный
    Битрейт : 384 Кбит/сек
    Каналы : 6 каналов
    Расположение каналов : Front: L C R, Side: L R, LFE
    Частота : 48, 0 КГц
    Частота кадров : 31, 250 кадров/сек (1536 SPF)
    Битовая глубина : 16 бит
    Метод сжатия : С потерями
    Размер потока : 274 Мбайт (2%)
    Язык : English
    Service kind : Complete Main
    Default : Нет
    Forced : Нет
    Аудио #2
    Идентификатор : 4
    Формат : AC-3
    Формат/Информация : Audio Coding 3
    Параметр Endianness формата : Big
    Идентификатор кодека : A_AC3
    Продолжительность : 1 ч. 39 м.
    Вид битрейта : Постоянный
    Битрейт : 384 Кбит/сек
    Каналы : 6 каналов
    Расположение каналов : Front: L C R, Side: L R, LFE
    Частота : 48, 0 КГц
    Частота кадров : 31, 250 кадров/сек (1536 SPF)
    Битовая глубина : 16 бит
    Метод сжатия : С потерями
    Размер потока : 274 Мбайт (2%)
    Заголовок : Перевод: Профессиональный (дублированный) | iTunes
    Язык : Russian
    Service kind : Complete Main
    Default : Да
    Forced : Нет
    Текст #1
    Идентификатор : 3
    Формат : UTF-8
    Идентификатор кодека : S_TEXT/UTF8
    Идентификатор кодека/Информация : UTF-8 Plain Text
    Продолжительность : 1 ч. 33 м.
    Битрейт : 70 бит/сек
    Count of elements : 1359
    Размер потока : 48, 1 Кбайт (0%)
    Заголовок : English-SRT
    Язык : English
    Default : Нет
    Forced : Нет
    Текст #2
    Идентификатор : 5
    Формат : UTF-8
    Идентификатор кодека : S_TEXT/UTF8
    Идентификатор кодека/Информация : UTF-8 Plain Text
    Продолжительность : 1 ч. 34 м.
    Битрейт : 0 бит/сек
    Count of elements : 5
    Размер потока : 178 байт (0%)
    Заголовок : Форсированные
    Язык : Russian
    Default : Да
    Forced : Да
    XMP
    Xmp.video.FileName : M: ФильмыИностранныеКлаустрофобы (Escape Room).mkv
    Xmp.video.FileSize : -9.53674e-007
    Xmp.video.MimeType : video/matroska
    Xmp.video.EBMLVersion : 1
    Xmp.video.EBMLReadVersion : 1
    Xmp.video.DocType : matroska
    Xmp.video.DocTypeVersion : 4
    Xmp.video.DocTypeReadVersion : 2
    Xmp.video.TimecodeScale : 0.001
    Xmp.video.MuxingApp : libebml v1.3.7 + libmatroska v1.5.0
    Xmp.video.WritingApp : mkvmerge v34.0.0 (\'Sight and Seen\') 64-bit
    Xmp.video.Duration : 5977984
    Xmp.video.DateUTC : 596869328
    Xmp.video.Title : РљРаустрофобы/Escape Room
    Xmp.video.TotalStream : 74
    Xmp.video.TrackLacing : No
    Xmp.video.Codec : V_MPEGH/ISO/HEVC
    Xmp.video.FrameRate : 23.976
    Xmp.video.TrackLang : und
    Xmp.video.TrackName : Форсированные
    Xmp.video.Width : 3840
    Xmp.video.Height : 1608
    Xmp.audio.DefaultOn : No
    Xmp.audio.Compressor : A_AC3
    Xmp.audio.DefaultDuration : 32000
    Xmp.audio.SampleRate : 48000
    Xmp.video.SubTDefaultOn : No
    Xmp.video.SubTTrackLacing : No
    Xmp.video.SubTCodec : S_TEXT/UTF8
    Xmp.audio.TrackLang : rus
    Xmp.video.SubTTrackForced : Yes
    Xmp.video.SubTLang : rus
    Xmp.video.AttachFileName : cover.jpg
    Xmp.video.AttachFileMIME : image/jpeg
    Xmp.video.AttachFileUID : -2169824202796678885
    Xmp.video.AttachFileDesc : BD Cover
    Xmp.video.AspectRatio : 2.35: 1
    H.265/HEVC (High Efficiency Video Coding) - это новый стандарт кодирования видео.
    *Рипы в фомате HEVC, в настоящее время поддерживается не всеми аппаратными проигрывателями.
    *Для корректного воспроизведения может потребоваться обновление ПО.
    *Стандарт H.265/HEVC является логическим продолжением стандарта H.264/AVC (Advanced Video Coding), и характеризуется более эффективными алгоритмами сжатия, а также поддержкой высокого разрешения вплоть до 8K UHD (8192x4320). Первая версия стандарта H.265 была опубликована в начале 2013 года.
    Любителям решения из коробки - установить последнюю версию на выбор:
    Media Player Classic - Black Edition (MPC-BE)
    VLC media player
    Daum Pot Player
    GOM Media Player
    Любителям WMP и других плееров, использующих по умолчанию для воспроизведения системные кодеки+сплитеры - установить K-Lite Codec Pack версии 10.1.0 и выше.
    Любимые плееры, не использующии по умолчанию для воспроизведения системные кодеки+сплитеры, нужно перенастроить на использование оных.Просмотр 4K HDR-контента на ПК

    Скриншоты для ознакомления






    Все одноименные релизы в Клубе
    Время раздачи: с 11: 00 до 21: 00 по Новосибирску (UTC +7) (до появления первых 3-5 скачавших)

    Онлайн видео Клаустрофобия



    Клаустрофобия/Escape Room (2017) UHD BDRip [H.265/2160p] [4K, HDR, 10-bit]
    Рейтинг →
     (голосов: 1, оценка 4/5, голосовать можно 1 раз )

    Другие торренты по теме:

  • Клаустрофобия / Escape room (2017) WEB-DLRip [Line] [AD]
  • Клаустрофобия / Escape room (2017) WEB-DLRip [H.264 / 1080p-LQ] [Line] [AD]
  • Клаустрофобия / Escape room (2017) WEB-DLRip [Line]
  • Клаустрофобия / Escape Room (2017) BDRemux [H.264 / 1080p]


    • Комментарии (0):

      Информация

      Информация

        Посетители, находящиеся в группе Гости, не могут оставлять комментарии в данной новости.

        ↓ Меню




        ↓ Опрос

        Вы добавили сайт в закладки?
        Да
        Нет


        Популярное