.
Авторизация | Регистрация
bitok.xyz
» » Банды Нью-Йорка / Gangs of New York (2002) BDRip [H.264 / 720p] торрент скачать бесплатно

    Банды Нью-Йорка / Gangs of New York (2002) BDRip [H.264 / 720p] торрент скачать бесплатно

    Дата: 1-01-2020, 05:00 | .torrent скачали: 0

    Банды Нью-Йорка / Gangs of New York (2002) BDRip [H.264 / 720p]Производство: США, Германия, Великобритания, Нидерланды, Италия/Miramax Films
    Жанр: Драма, Криминал, История
    Режиссер: Мартин Скорсезе

    Актеры
    Леонардо ДиКаприо, Дэниэл Дэй-Льюис, Кэмерон Диаз, Джим Бродбент, Джон Си Райли, Генри Томас, Лиам Нисон, Брендан Глисон, Гари Льюис, Стивен Грэм

    Описание

    Нью-Йорк, 1863 год. В диких трущобах города американской мечты действует только один закон — закон силы. Здесь идет в ход любое оружие, никто не считает потерь и не оплакивает погибших. В одной из жестоких стычек от рук вожака коренных американцев — Мясника Билла погибает предводитель банды ирландцев Вэллон. Его сын Амстердам надолго попадает в исправительную школу, затаив ненависть на Мясника, ставшего хозяином окрестных кварталов. Спустя годы не узнанный никем Амстердам возвратится на родные улицы с единственной целью — отомстить убийце отца…

    Продолжительность: 02: 46: 36
    Качество видео: BDRip 720р
    Перевод: Дублированный
    Язык субтитров: Русский, Английский
    Вид субтитров: Вшитые, отключаемые
    Видео: AVC/H.264, 1280x544, ~5545 Kbps
    Аудио #1: AC3, 6 ch, 640 kbps (Русский)
    Аудио #2: AC3, 6 ch, 640 kbps (Английский) Код: выделить все
    General
    Unique ID : 200034910351027341826303019123084974388 (0x967D528748F8C5D68EFE059AAE695934)
    Complete name : D:РаздачиGangs_of_New_York_BDRip_720p.mkv
    Format : Matroska
    File size : 7.94 GiB
    Duration : 2h 46mn
    Overall bit rate : 6 826 Kbps
    Encoded date : UTC 2010-04-14 11:32:50
    Writing application : mkvmerge v2.9.8 (\'C\'est le bon\') built on Aug 13 2009 12:49:06
    Writing library : libebml v0.7.7 + libmatroska v0.8.1
    Video
    ID : 1
    Format : AVC
    Format/Info : Advanced Video Codec
    Format profile :High@L4.1
    Format settings, CABAC : Yes
    Format settings, ReFrames : 11 frames
    Codec ID : V_MPEG4/ISO/AVC
    Duration : 2h 46mn
    Bit rate : 5 545 Kbps
    Width : 1 280 pixels
    Height : 544 pixels
    Display aspect ratio : 2.35:1
    Frame rate : 23.976 fps
    Color space : YUV
    Chroma subsampling : 4:2:0
    Bit depth : 8 bits
    Scan type : Progressive
    Bits/(Pixel*Frame) : 0.332
    Stream size : 6.30 GiB (79%)
    Writing library : x264 core 84 r1400M 20fa784
    Encoding settings : cabac=1/ref=11/deblock=1:-3:-3/analyse=0x3:0x113/me=umh/subme=10/psy=1/psy_rd=1.0:0.0/mixed_ref=1/me_range=32/chroma_me=1/trellis=2/8x8dct=1/cqm=0/deadzone=21, 11/fast_pskip=0/chroma_qp_offset=-2/threads=6/sliced_threads=0/nr=0/decimate=0/mbaff=0/constrained_intra=0/bframes=10/b_pyramid=2/b_adapt=2/b_bias=0/direct=3/wpredb=1/wpredp=2/keyint=240/keyint_min=24/scenecut=40/intra_refresh=0/rc_lookahead=80/rc=2pass/mbtree=1/bitrate=5545/ratetol=1.0/qcomp=0.70/qpmin=10/qpmax=51/qpstep=4/cplxblur=20.0/qblur=0.5/ip_ratio=1.40/aq=1:0.80/pulldown=0/nal_hrd=0
    Language : English
    Audio #1
    ID : 2
    Format : AC-3
    Format/Info : Audio Coding 3
    Mode extension : CM (complete main)
    Codec ID : A_AC3
    Duration : 2h 46mn
    Bit rate mode : Constant
    Bit rate : 640 Kbps
    Channel(s) : 6 channels
    Channel positions : Front: L C R, Side: L R, LFE
    Sampling rate : 48.0 KHz
    Bit depth : 16 bits
    Compression mode : Lossy
    Stream size : 763 MiB (9%)
    Language : Russian
    Audio #2
    ID : 3
    Format : AC-3
    Format/Info : Audio Coding 3
    Mode extension : CM (complete main)
    Codec ID : A_AC3
    Duration : 2h 46mn
    Bit rate mode : Constant
    Bit rate : 640 Kbps
    Channel(s) : 6 channels
    Channel positions : Front: L C R, Side: L R, LFE
    Sampling rate : 48.0 KHz
    Bit depth : 16 bits
    Compression mode : Lossy
    Stream size : 763 MiB (9%)
    Language : English
    Text #1
    ID : 4
    Format : UTF-8
    Codec ID : S_TEXT/UTF8
    Codec ID/Info : UTF-8 Plain Text
    Language : Russian
    Text #2
    ID : 5
    Format : UTF-8
    Codec ID : S_TEXT/UTF8
    Codec ID/Info : UTF-8 Plain Text
    Language : English

    Скриншоты для ознакомления



    Время раздачи: 24/7 (до появления первых 3-5 скачавших)

    Онлайн видео Банды Нью-Йорка


    Прямая ссылка скачивания через uTorrent


    Банды Нью-Йорка/Gangs of New York (2002) BDRip [H.264/720p]
    Рейтинг →
     (голосов: 1, оценка 3/5, голосовать можно 1 раз )

    Другие торренты по теме:

  • Банды Нью-Йорка / Gangs of New York (2002) BDRip [H.264 / 720p]
  • Банды Нью-Йорка / Gangs of New York (2002) HDRip [H.264](Remastered)[MP4|1024x436]
  • Банды Нью-Йорка / Gangs of New York [REMASTERED] (2002) [1080p] BDRip


    • Комментарии (0):

      Информация

      Информация

        Посетители, находящиеся в группе Гости, не могут оставлять комментарии в данной новости.

        ↓ Меню




        ↓ Опрос

        Вы добавили сайт в закладки?
        Да
        Нет


        Популярное