.
Авторизация | Регистрация
bitok.xyz
» » Мой парень - ангел (2011) BDRip [H.264] торрент скачать бесплатно


    Мой парень - ангел (2011) BDRip [H.264] торрент скачать бесплатно

    Дата: 1-01-2020, 05:00 | .torrent скачали: 0

    Мой парень - ангел (2011) BDRip [H.264]Производство: Россия
    Жанр: фэнтези, мелодрама, комедия, приключения
    Режиссер: Вера Сторожева

    Актеры
    Артур Смольянинов, Анна Старшенбаум, Сергей Пускепалис, Екатерина Вуличенко, Иван Охлобыстин, Гоша Куценко, Никита Ефремов, Иван Макаревич, Андрей Леонов, Василий Степанов

    Описание

    XXI век. Мегаполис. Сотни, тысячи людей окружают тебя каждый день. Но ты даже и представить себе не можешь, что среди этой многоликой толпы прямо перед тобой может оказаться… Ангел. Студентка Саша с большим трудом верит, что такое бывает. Ангелу Серафиму приходится приложить немало усилий, чтобы доказать ей, что Ангелы существуют. Но он не учёл одного — если девушка тебе поверит, она, скорее всего, тебя полюбит. А разве можно влюбиться в Ангела?

    Возраст: 16+ (зрителям, достигшим 16 лет)
    Продолжительность: 01: 37: 30
    Качество видео: BDRip
    Субтитры: отсутствуют
    Видео: AVC/H.264, 1024x570, ~2749 kbps
    Аудио: AC3, 6 ch, 448 kbps
    Общее
    Уникальный идентификатор : 233335009590902697643961348624966782015 (0xAF8AB02E2B8D7B1B970048F9E8408C3F)
    Полное имя : D: FILMSZALIVMoy.paren.angel.BDRip.AVC.mkv
    Формат : Matroska
    Версия формата : Version 4
    Размер файла : 2, 18 Гбайт
    Продолжительность : 1 ч. 37 м.
    Общий поток : 3197 Кбит/сек
    Название фильма : Мой парень - ангел (2011) BDRip-AVC - firebit.org
    Дата кодирования : UTC 2019-12-23 07: 54: 30
    Программа кодирования : mkvmerge v8.2.0 (\'World of Adventure\') 64bit
    Библиотека кодирования : libebml v1.3.1 + libmatroska v1.4.2
    Видео
    Идентификатор : 1
    Формат : AVC
    Формат/Информация : Advanced Video Codec
    Профиль формата : High@L4.1
    Настройки формата : CABAC/10 Ref Frames
    Параметр CABAC формата : Да
    Параметр RefFrames формата : 10 кадров
    Идентификатор кодека : V_MPEG4/ISO/AVC
    Продолжительность : 1 ч. 37 м.
    Битрейт : 2749 Кбит/сек
    Ширина : 1024 пикселя
    Высота : 570 пикселей
    Соотношение сторон : 16: 9
    Режим частоты кадров : Постоянный
    Частота кадров : 23, 976 кадра/сек
    Цветовое пространство : YUV
    Субдискретизация насыщенности : 4: 2: 0
    Битовая глубина : 8 бит
    Тип развёртки : Прогрессивная
    Бит/(Пиксели*Кадры) : 0.196
    Размер потока : 1, 87 Гбайт (86%)
    Заголовок : http://firebit.org
    Библиотека кодирования : x264 core 118 r2085 8a62835
    Настройки программы : cabac=1/ref=10/deblock=1: -3: -2/analyse=0x3: 0x133/me=umh/subme=9/psy=1/psy_rd=0.95: 0.05/mixed_ref=1/me_range=48/chroma_me=1/trellis=2/8x8dct=1/cqm=0/deadzone=21, 11/fast_pskip=0/chroma_qp_offset=-3/threads=12/sliced_threads=0/nr=0/decimate=1/interlaced=0/bluray_compat=0/constrained_intra=0/bframes=9/b_pyramid=2/b_adapt=2/b_bias=0/direct=3/weightb=1/open_gop=0/weightp=2/keyint=250/keyint_min=23/scenecut=40/intra_refresh=0/rc=2pass/mbtree=0/bitrate=2749/ratetol=1.0/qcomp=0.60/qpmin=0/qpmax=69/qpstep=4/cplxblur=20.0/qblur=0.5/ip_ratio=1.40/pb_ratio=1.30/aq=2: 0.90
    Язык : Russian
    Default : Да
    Forced : Нет
    Аудио
    Идентификатор : 2
    Формат : AC-3
    Формат/Информация : Audio Coding 3
    Коммерческое название : Dolby Digital
    Идентификатор кодека : A_AC3
    Продолжительность : 1 ч. 37 м.
    Вид битрейта : Постоянный
    Битрейт : 448 Кбит/сек
    Каналы : 6 каналов
    ChannelLayout : L R C LFE Ls Rs
    Частота : 48, 0 КГц
    Частота кадров : 31, 250 кадров/сек (1536 SPF)
    Метод сжатия : С потерями
    Размер потока : 312 Мбайт (14%)
    Заголовок : RUS
    Язык : Russian
    ServiceKind/String : Complete Main
    Default : Да
    Forced : Нет

    Скриншоты для ознакомления



    Все одноименные релизы в Клубе
    Время раздачи: с 5 до 19 мск (до появления первых 3-5 скачавших)

    Онлайн видео Мой парень



    Мой парень - ангел (2011) BDRip [H.264]
    Рейтинг →
     (голосов: 1, оценка 3/5, голосовать можно 1 раз )

    Другие торренты по теме:

  • Надежда Кузьмина | Пара не пара - парень не парень (2016) [FB2]
  • Надежда Кузьмина | Пара не пара - парень не парень (2016) [MP3]
  • Парень из пузыря / Bubble Boy (2001) WEB-DLRip [H.264]
  • Клевый парень / Bowfinger (1999) HDTVRip [H.264] скачать через торрент бесплатно
  • Парень из кальция / The Calcium Kid (2004) DVDRip скачать через торрент бесплатно
  • Arc the Lad | Арк - парень не промах [1999, TV, 26 эп.] DVDRip 480p raw + eng скачать через торрент бесплатно
  • Golden Boy | Золотой парень [1995, OVA, 6 эп.] DVDRip 480p raw скачать через торрент бесплатно
  • Мой парень – псих / Silver Linings Playbook (2012) BDRip [H.264 / 1080p] скачать через торрент бесплатно


    • Комментарии (0):

      Информация

      Информация

        Посетители, находящиеся в группе Гости, не могут оставлять комментарии в данной новости.

        ↓ Меню




        ↓ Опрос

        Вы добавили сайт в закладки?
        Да
        Нет


        Популярное