.
Авторизация | Регистрация
bitok.xyz
» » Самолётом, поездом, машиной / Planes, Trains & Automobiles (1987) BDRip [H.264] торрент скачать бесплатно


    Самолётом, поездом, машиной / Planes, Trains & Automobiles (1987) BDRip [H.264] торрент скачать бесплатно

    Дата: 1-01-2020, 05:00 | .torrent скачали: 0

    Самолётом, поездом, машиной / Planes, Trains & Automobiles (1987) BDRip [H.264]Производство: США, Hughes Entertainment, Paramount Pictures
    Жанр: Комедия
    Режиссер: Джон Хьюз

    Актеры
    Стив Мартин, Джон Кэнди, Лайла Робинс, Майкл МакКин, Кевин Бэйкон, Дилан Бэйкер, Кэрол Брюс, Оливия Бернетт, Диана Дуглас, Мартин Ферреро

    Описание

    Всё что было нужно преуспевающему рекламщику Нилу Пэйджу, так это успеть домой ко Дню Благодарения. Ведь это так просто: купить билет на самолёт, совершить комфортабельный полёт до родного Чикаго и уже вечером сесть за праздничный стол со всей своей семьёй.
    Но случилось так, что это оказалось чудовищно трудной задачей. Путь домой станет для Нила самым невероятным приключением всей его жизни!

    Возраст: 12+ (зрителям, достигшим 12 лет)
    Рейтинг MPAA: R (лицам до 17 лет обязательно присутствие взрослого)
    Продолжительность: 01: 32: 28
    Качество видео: BDRip
    Перевод: Многоголосый профессиональный, авторский
    Субтитры: Английские
    Видео: AVC/H.264, 1024x576, ~2691 kbps
    Аудио#1: AC3, 6 ch, 384 Kbps, Русский (MVO)
    Аудио#2: AC3, 2 ch, 192 Kbps, Русский (MVO)-СТС
    Аудио#3: AC3, 2 ch, 192 Kbps, Русский (MVO)-ТВ3
    Аудио#4: AC3, 6 ch, 448 Kbps, Русский (AVO)-Алексей Михалёв
    Аудио#5: AC3, 6 ch, 448 Kbps, Английский (Оригинал)
    Общее
    Уникальный идентификатор : 238242638089096459190848268428942879315 (0xB33BDCF252C41782B4B01F293A69AA53)
    Полное имя : E: Самолётом, поездом, машиной.1987.BDRip.mkv
    Формат : Matroska
    Версия формата : Version 4
    Размер файла : 2, 81 Гбайт
    Продолжительность : 1 ч. 32 м.
    Общий поток : 4358 Кбит/сек
    Дата кодирования : UTC 2016-01-11 13: 04: 56
    Программа кодирования : mkvmerge v8.2.0 (\'World of Adventure\') 64bit
    Библиотека кодирования : libebml v1.3.1 + libmatroska v1.4.2
    Видео
    Идентификатор : 1
    Формат : AVC
    Формат/Информация : Advanced Video Codec
    Профиль формата : High@L4.1
    Настройки формата : CABAC/9 Ref Frames
    Параметр CABAC формата : Да
    Параметр RefFrames формата : 9 кадров
    Идентификатор кодека : V_MPEG4/ISO/AVC
    Продолжительность : 1 ч. 32 м.
    Битрейт : 2691 Кбит/сек
    Ширина : 1024 пикселя
    Высота : 576 пикселей
    Соотношение сторон : 16: 9
    Режим частоты кадров : Постоянный
    Частота кадров : 23, 976 (24000/1001) кадра/сек
    Цветовое пространство : YUV
    Субдискретизация насыщенности : 4: 2: 0
    Битовая глубина : 8 бит
    Тип развёртки : Прогрессивная
    Бит/(Пиксели*Кадры) : 0.190
    Размер потока : 1, 74 Гбайт (62%)
    Библиотека кодирования : x264 core 146 r2538 121396c
    Настройки программы : cabac=1/ref=9/deblock=1: -1: -1/analyse=0x3: 0x113/me=umh/subme=10/psy=1/psy_rd=1.00: 0.15/mixed_ref=1/me_range=32/chroma_me=1/trellis=2/8x8dct=1/cqm=0/deadzone=21, 11/fast_pskip=1/chroma_qp_offset=-3/threads=6/lookahead_threads=1/sliced_threads=0/nr=0/decimate=1/interlaced=0/bluray_compat=0/constrained_intra=0/bframes=11/b_pyramid=2/b_adapt=2/b_bias=0/direct=1/weightb=1/open_gop=0/weightp=2/keyint=230/keyint_min=23/scenecut=40/intra_refresh=0/rc_lookahead=40/rc=crf/mbtree=0/crf=18.9/qcomp=0.60/qpmin=0/qpmax=69/qpstep=4/vbv_maxrate=40000/vbv_bufsize=50000/crf_max=0.0/nal_hrd=none/filler=0/ip_ratio=1.40/pb_ratio=1.30/aq=1: 1.00
    Язык : English
    Default : Да
    Forced : Нет
    Аудио #1
    Идентификатор : 2
    Формат : AC-3
    Формат/Информация : Audio Coding 3
    Коммерческое название : Dolby Digital
    Идентификатор кодека : A_AC3
    Продолжительность : 1 ч. 32 м.
    Вид битрейта : Постоянный
    Битрейт : 384 Кбит/сек
    Каналы : 6 каналов
    ChannelLayout : L R C LFE Ls Rs
    Частота : 48, 0 КГц
    Частота кадров : 31, 250 кадров/сек (1536 SPF)
    Метод сжатия : С потерями
    Размер потока : 254 Мбайт (9%)
    Заголовок : MVO
    Язык : Russian
    ServiceKind/String : Complete Main
    Default : Да
    Forced : Нет
    Аудио #2
    Идентификатор : 3
    Формат : AC-3
    Формат/Информация : Audio Coding 3
    Коммерческое название : Dolby Digital
    Идентификатор кодека : A_AC3
    Продолжительность : 1 ч. 32 м.
    Вид битрейта : Постоянный
    Битрейт : 192 Кбит/сек
    Каналы : 2 канала
    ChannelLayout : L R
    Частота : 48, 0 КГц
    Частота кадров : 31, 250 кадров/сек (1536 SPF)
    Метод сжатия : С потерями
    Размер потока : 127 Мбайт (4%)
    Заголовок : MVO (CTC)
    Язык : Russian
    ServiceKind/String : Complete Main
    Default : Нет
    Forced : Нет
    Аудио #3
    Идентификатор : 4
    Формат : AC-3
    Формат/Информация : Audio Coding 3
    Коммерческое название : Dolby Digital
    Идентификатор кодека : A_AC3
    Продолжительность : 1 ч. 32 м.
    Вид битрейта : Постоянный
    Битрейт : 192 Кбит/сек
    Каналы : 2 канала
    ChannelLayout : L R
    Частота : 48, 0 КГц
    Частота кадров : 31, 250 кадров/сек (1536 SPF)
    Метод сжатия : С потерями
    Размер потока : 127 Мбайт (4%)
    Заголовок : MVO (TB3)
    Язык : Russian
    ServiceKind/String : Complete Main
    Default : Нет
    Forced : Нет
    Аудио #4
    Идентификатор : 5
    Формат : AC-3
    Формат/Информация : Audio Coding 3
    Коммерческое название : Dolby Digital
    Идентификатор кодека : A_AC3
    Продолжительность : 1 ч. 32 м.
    Вид битрейта : Постоянный
    Битрейт : 448 Кбит/сек
    Каналы : 6 каналов
    ChannelLayout : L R C LFE Ls Rs
    Частота : 48, 0 КГц
    Частота кадров : 31, 250 кадров/сек (1536 SPF)
    Метод сжатия : С потерями
    Размер потока : 296 Мбайт (10%)
    Заголовок : AVO (Алексей Михалёв)
    Язык : Russian
    ServiceKind/String : Complete Main
    Default : Нет
    Forced : Нет
    Аудио #5
    Идентификатор : 6
    Формат : AC-3
    Формат/Информация : Audio Coding 3
    Коммерческое название : Dolby Digital
    Идентификатор кодека : A_AC3
    Продолжительность : 1 ч. 32 м.
    Вид битрейта : Постоянный
    Битрейт : 448 Кбит/сек
    Каналы : 6 каналов
    ChannelLayout : L R C LFE Ls Rs
    Частота : 48, 0 КГц
    Частота кадров : 31, 250 кадров/сек (1536 SPF)
    Метод сжатия : С потерями
    Размер потока : 296 Мбайт (10%)
    Заголовок : Original
    Язык : English
    ServiceKind/String : Complete Main
    Default : Нет
    Forced : Нет
    Текст
    Идентификатор : 7
    Формат : UTF-8
    Идентификатор кодека : S_TEXT/UTF8
    Идентификатор кодека/Информация : UTF-8 Plain Text
    Продолжительность : 1 ч. 31 м.
    Битрейт : 52 бит/сек
    ElementCount : 1103
    Размер потока : 34, 8 Кбайт (0%)
    Заголовок : английский
    Язык : English
    Default : Нет
    Forced : Нет

    Скриншоты для ознакомления



    Все одноименные релизы в Клубе
    Время раздачи: с 14: 00 до 23: 00 (до появления первых 3-5 скачавших)

    Онлайн видео Самолётом, поездом, машиной



    Самолётом, поездом, машиной/Planes, Trains & Automobiles (1987) BDRip [H.264]
    Рейтинг →
     (голосов: 1, оценка 3/5, голосовать можно 1 раз )

    Другие торренты по теме:

  • Самолётом, поездом, машиной / Planes, Trains & Automobiles (1987) BDRip [H.265 / 1080p-LQ]


    • Комментарии (0):

      Информация

      Информация

        Посетители, находящиеся в группе Гости, не могут оставлять комментарии в данной новости.

        ↓ Меню




        ↓ Опрос

        Вы добавили сайт в закладки?
        Да
        Нет


        Популярное