.
Авторизация | Регистрация
bitok.xyz
» » Охотники за привидениями / Ghostbusters (1984, 1989) BDRip [H.265 / 1080p] [10-bit] [Дилогия] торрент скачать бесплатно


    Охотники за привидениями / Ghostbusters (1984, 1989) BDRip [H.265 / 1080p] [10-bit] [Дилогия] торрент скачать бесплатно

    Дата: 1-01-2020, 05:00 | .torrent скачали: 0

    Охотники за привидениями / Ghostbusters (1984, 1989) BDRip [H.265 / 1080p] [10-bit] [Дилогия]Производство: США/Columbia Pictures, Delphi Films, Black Rhino Productions
    Жанр: фантастика, фэнтези, боевик, комедия
    Режиссер: Айвен Райтман

    Актеры
    Билл Мюррей, Дэн Эйкройд, Сигурни Уивер, Харольд Рэмис, Рик Морэнис, Энни Поттс, Уильям Этертон, Эрни Хадсон, Дэвид Маргулис, Стивен Тэш, Питер МакНикол, Харрис Юлин

    Описание
    В конце двадцатого века оказывается, что в Нью — Йорке живут не только обычные граждане, но и… привидения. Многомиллионное население не может противостоять натиску сверхъестественного.....
    Продолжительность: 01: 45: 08/01: 48: 19
    Качество видео: BDRip
    Перевод: Дублированный, профессиональный многоголосый, двухголосый (украинский)
    Субтитры: Русские, английские
    Видео: HEVC/H.265, 1920x804/1920x800, ~ 15.1 Мbps/9934 Кbps
    Аудио 1: AC3, 2 ch, 640/192 Kbps - Русский
    Аудио 2: AC3, 2 ch, 192 Kbps - Украинский
    Аудио 3: AC3, 6 ch, 640 Kbps - АнглийскийОхотники за привидениями/Ghostbusters (1984) BDRip
    Производство: США/Columbia Pictures, Delphi Films, Black Rhino Productions
    Жанр: фантастика, фэнтези, боевик, комедия
    Режиссер: Айвен Райтман

    Актеры
    Билл Мюррей, Дэн Эйкройд, Сигурни Уивер, Харольд Рэмис, Рик Морэнис, Энни Поттс, Уильям Этертон, Эрни Хадсон, Дэвид Маргулис, Стивен Тэш

    Описание
    В конце двадцатого века оказывается, что в Нью — Йорке живут не только обычные граждане, но и… привидения. Многомиллионное население не может противостоять натиску сверхъестественного. В конце концов на пути бесчисленных монстров не остается никого — кроме троих ученых — парапсихологов, которым известно все о потустороннем мире, правда только в теории. И теперь им придется оставить пыльные кабинеты и применить свои знания на практике…

    Возраст: 6+ (зрителям, достигшим 6 лет)
    Рейтинг MPAA: PG (рекомендуется присутствие родителей)
    Релиз от: Mr. Fox (HEVC-CLUB)
    Продолжительность: 01: 45: 08
    Качество видео: BDRip
    Перевод: Дублированный, многоголосый закадровый
    Язык озвучки: Русский, украинский, английский
    Субтитры: Русские (форсированные, полные), английские
    Видео: HEVC/H.265, 1920x804, ~15, 1 Мbps
    Аудио 1: AC3, 6 ch, 640 Kbps - Русский, MVO (BD CEE)
    Аудио 2: AC3, 2 ch, 192 Kbps - Русский, дублированный (Варус-видео)
    Аудио 3: AC3, 2 ch, 192 Kbps - Украинский, MVO (1+1/ТеТ)
    Аудио 4: AC3, 6 ch, 640 Kbps - Английский
    Общее
    Уникальный идентификатор : 159848043628758350435255075592346244874 (0x78419D06510F6CCDB602ED1EBC57970A)
    Полное имя : R: Ghostbusters1. Ghostbusters (1984) BDRip 1080p HEVC.mkv
    Формат : Matroska
    Версия формата : Version 4/Version 2
    Размер файла : 12, 3 Гбайт
    Продолжительность : 1 ч. 45 м.
    Общий поток : 16, 7 Мбит/сек
    Название фильма : Ghost Busters (1984) Mastered in 4K
    Дата кодирования : UTC 2019-12-27 18: 35: 43
    Программа кодирования : mkvmerge v40.0.0 (\'Old Town Road + Pony\') 64-bit
    Библиотека кодирования : libebml v1.3.9 + libmatroska v1.5.2
    Обложка : Yes
    Attachments : cover.jpg
    Видео
    Идентификатор : 1
    Формат : HEVC
    Формат/Информация : High Efficiency Video Coding
    Профиль формата : Main10@L4.1@High
    Идентификатор кодека : V_MPEGH/ISO/HEVC
    Продолжительность : 1 ч. 45 м.
    Битрейт : 15, 1 Мбит/сек
    Ширина : 1920 пикселей
    Высота : 804 пикселя
    Соотношение сторон : 2, 40: 1
    Режим частоты кадров : Постоянный
    Частота кадров : 23, 976 (23976/1000) кадра/сек
    Частота кадров в оригинале : 23, 976 (24000/1001) кадра/сек
    Цветовое пространство : YUV
    Субдискретизация насыщенности : 4: 2: 0
    Битовая глубина : 10 бит
    Бит/(Пиксели*Кадры) : 0.407
    Размер потока : 11, 1 Гбайт (90%)
    Библиотека кодирования : x265 3.2.1+1-b5c86a64bbbe: WindowsMSVC 192364 bit 10bit
    Настройки программы : cpuid=1111039/frame-threads=3/numa-pools=12/wpp/no-pmode/no-pme/no-psnr/no-ssim/log-level=2/input-csp=1/input-res=1920x804/interlace=0/total-frames=144689/level-idc=41/high-tier=1/uhd-bd=0/ref=5/no-allow-non-conformance/no-repeat-t_heads/annexb/no-aud/no-hrd/info/hash=0/no-temporal-layers/open-gop/min-keyint=23/keyint=240/gop-lookahead=0/bframes=16/b-adapt=2/b-pyramid/bframe-bias=0/rc-lookahead=60/lookahead-slices=4/scenecut=40/radl=0/no-splice/no-intra-refresh/ctu=32/min-cu-size=8/rect/amp/max-tu-size=32/tu-inter-depth=4/tu-intra-depth=4/limit-tu=1/rdoq-level=2/dynamic-rd=0.00/no-ssim-rd/signhide/no-tskip/nr-intra=0/nr-inter=0/no-constrained-intra/no-strong-intra-smoothing/max-merge=4/limit-refs=2/limit-modes/me=3/subme=7/merange=57/temporal-mvp/no-hme/weightp/weightb/no-analyze-src-pics/deblock=0: 0/no-sao/no-sao-non-deblock/rd=6/selective-sao=0/no-early-skip/no-rskip/no-fast-intra/no-tskip-fast/no-cu-lossless/no-b-intra/no-splitrd-skip/rdpenalty=0/psy-rd=2.00/psy-rdoq=1.00/no-rd-refine/no-lossless/cbqpoffs=0/crqpoffs=0/rc=crf/crf=20.0/qcomp=0.60/qpstep=4/stats-write=0/stats-read=0/vbv-maxrate=50000/vbv-bufsize=50000/vbv-init=0.9/crf-max=0.0/crf-min=0.0/ipratio=1.40/pbratio=1.30/aq-mode=1/aq-strength=1.00/no-cutree/zone-count=0/no-strict-cbr/qg-size=32/no-rc-grain/qpmax=69/qpmin=0/no-const-vbv/sar=1/overscan=0/videoformat=5/range=0/colorprim=1/transfer=1/colormatrix=1/chromaloc=0/display-window=0/cll=0, 0/min-luma=0/max-luma=1023/log2-max-poc-lsb=8/vui-timing-info/vui-hrd-info/slices=1/no-opt-qp-pps/no-opt-ref-list-length-pps/no-multi-pass-opt-rps/scenecut-bias=0.05/no-opt-cu-delta-qp/no-aq-motion/no-hdr/no-hdr-opt/no-dhdr10-opt/no-idr-recovery-sei/analysis-reuse-level=5/scale-factor=0/refine-intra=0/refine-inter=0/refine-mv=1/refine-ctu-distortion=0/no-limit-sao/ctu-info=0/no-lowpass-dct/refine-analysis-type=0/copy-pic=1/max-ausize-factor=1.0/no-dynamic-refine/no-single-sei/no-hevc-aq/no-svt/no-field/qp-adaptation-range=1.00
    Default : Да
    Forced : Нет
    Цветовой диапазон : Limited
    Основные цвета : BT.709
    Характеристики трансфера : BT.709
    Коэффициенты матрицы : BT.709
    Аудио #1
    Идентификатор : 2
    Формат : AC-3
    Формат/Информация : Audio Coding 3
    Идентификатор кодека : A_AC3
    Продолжительность : 1 ч. 45 м.
    Вид битрейта : Постоянный
    Битрейт : 640 Кбит/сек
    Каналы : 6 каналов
    Расположение каналов : Front: L C R, Side: L R, LFE
    Частота : 48, 0 КГц
    Частота кадров : 31, 250 кадров/сек (1536 SPF)
    Битовая глубина : 16 бит
    Метод сжатия : С потерями
    Размер потока : 481 Мбайт (4%)
    Заголовок : MVO, BD CEE
    Язык : Russian
    ServiceKind/String : Complete Main
    Default : Да
    Forced : Нет
    Аудио #2
    Идентификатор : 3
    Формат : AC-3
    Формат/Информация : Audio Coding 3
    Идентификатор кодека : A_AC3
    Продолжительность : 1 ч. 45 м.
    Вид битрейта : Постоянный
    Битрейт : 192 Кбит/сек
    Каналы : 2 канала
    Расположение каналов : Front: L R
    Частота : 48, 0 КГц
    Частота кадров : 31, 250 кадров/сек (1536 SPF)
    Битовая глубина : 16 бит
    Метод сжатия : С потерями
    Размер потока : 144 Мбайт (1%)
    Заголовок : Дубляж, Варус-видео
    Язык : Russian
    ServiceKind/String : Complete Main
    Default : Нет
    Forced : Нет
    Аудио #3
    Идентификатор : 4
    Формат : AC-3
    Формат/Информация : Audio Coding 3
    Идентификатор кодека : A_AC3
    Продолжительность : 1 ч. 45 м.
    Вид битрейта : Постоянный
    Битрейт : 192 Кбит/сек
    Каналы : 2 канала
    Расположение каналов : Front: L R
    Частота : 48, 0 КГц
    Частота кадров : 31, 250 кадров/сек (1536 SPF)
    Битовая глубина : 16 бит
    Метод сжатия : С потерями
    Размер потока : 144 Мбайт (1%)
    Заголовок : MVO, 1+1/ТеТ
    Язык : Ukrainian
    ServiceKind/String : Complete Main
    Default : Нет
    Forced : Нет
    Аудио #4
    Идентификатор : 5
    Формат : AC-3
    Формат/Информация : Audio Coding 3
    Идентификатор кодека : A_AC3
    Продолжительность : 1 ч. 45 м.
    Вид битрейта : Постоянный
    Битрейт : 640 Кбит/сек
    Каналы : 6 каналов
    Расположение каналов : Front: L C R, Side: L R, LFE
    Частота : 48, 0 КГц
    Частота кадров : 31, 250 кадров/сек (1536 SPF)
    Битовая глубина : 16 бит
    Метод сжатия : С потерями
    Размер потока : 481 Мбайт (4%)
    Заголовок : Eng
    Язык : English
    ServiceKind/String : Complete Main
    Default : Нет
    Forced : Нет
    Текст #1
    Идентификатор : 6
    Формат : UTF-8
    Идентификатор кодека : S_TEXT/UTF8
    Идентификатор кодека/Информация : UTF-8 Plain Text
    Продолжительность : 1 ч. 28 м.
    Битрейт : 0 бит/сек
    ElementCount : 5
    Размер потока : 180 байт (0%)
    Заголовок : Rus forced
    Язык : Russian
    Default : Да
    Forced : Да
    Текст #2
    Идентификатор : 7
    Формат : UTF-8
    Идентификатор кодека : S_TEXT/UTF8
    Идентификатор кодека/Информация : UTF-8 Plain Text
    Продолжительность : 1 ч. 36 м.
    Битрейт : 69 бит/сек
    ElementCount : 810
    Размер потока : 49, 1 Кбайт (0%)
    Заголовок : Rus
    Язык : Russian
    Default : Нет
    Forced : Нет
    Текст #3
    Идентификатор : 8
    Формат : UTF-8
    Идентификатор кодека : S_TEXT/UTF8
    Идентификатор кодека/Информация : UTF-8 Plain Text
    Продолжительность : 1 ч. 36 м.
    Битрейт : 63 бит/сек
    ElementCount : 1132
    Размер потока : 45, 2 Кбайт (0%)
    Заголовок : Eng
    Язык : English
    Default : Нет
    Forced : Нет
    Меню
    00: 00: 00.000 : en: Start
    00: 02: 42.996 : en: Shock the Nerd
    00: 06: 38.940 : en: Get Her!
    00: 13: 13.543 : en: Terminated
    00: 15: 46.445 : en: Fixer-Upper
    00: 16: 45.338 : en: Spook Central
    00: 18: 36.157 : en: Fried Eggs Zuul
    00: 20: 51.125 : en: Bug-Eyes Thing
    00: 21: 50.059 : en: The 1st Customer
    00: 23: 59.938 : en: Checking Out Dana
    00: 28: 35.756 : en: We Got One!
    00: 32: 31.700 : en: He Slimed Me.
    00: 34: 51.965 : en: Nice Shootin\', Tex.
    00: 39: 06.678 : en: Welcome Aboard
    00: 46: 07.848 : en: E.P.A. Man
    00: 48: 46.715 : en: Dogs Drag Dana
    00: 52: 15.883 : en: Who Brought the Dog?
    00: 53: 53.564 : en: Terror on the Tavern
    00: 55: 04.051 : en: Peter\'s Date with Zuul
    00: 59: 13.133 : en: Keymaster
    01: 04: 33.161 : en: Out of Biz
    01: 10: 41.946 : en: Holding Cell
    01: 13: 35.286 : en: Keeper Meets Master
    01: 14: 41.560 : en: Biblical
    01: 18: 58.525 : en: Working the Crowd
    01: 25: 17.029 : en: Gozer
    01: 30: 44.731 : en: Stay Puft Man
    01: 33: 49.207 : en: Crossing Streams


    Онлайн видео Охотники за привидениями



    Охотники за привидениями/Ghostbusters (1984, 1989) BDRip [H.265/1080p] [10-bit] [Дилогия]
    Рейтинг →
     (голосов: 1, оценка 4/5, голосовать можно 1 раз )

    Другие торренты по теме:

  • Охотники за привидениями: Дилогия / Ghostbusters: Dilogy (1984,1989) BDRip [720p]
  • Охотники за привидениями / Ghost Busters (1984) WEB-DL [H.265 / 2160p-LQ] скачать через торрент бесплатно
  • Охотники за привидениями 2 / Ghost Busters II (1989) WEB-DL [H.265 / 2160p-LQ] скачать через торрент бесплатно
  • Охотники за привидениями: Дилогия / Ghostbusters: Dilogy (1984, 1989) HDRip [H.264] [MP4|960х400] скачать через торрент бесплатно
  • Охотники за привидениями / Ghostbusters (2016) WEBRip [H.264 / 1080p] [Трейлер]
  • Охотники за привидениями / Ghost Busters (1984) BDRip [H.265 / 1080p-LQ]
  • Охотники за привидениями 2 / Ghost Busters II (1989) BDRip [H.265 / 1080p-LQ] [Main10]
  • Охотники за привидениями / Ghostbusters (2016)


    • Комментарии (0):

      Информация

      Информация

        Посетители, находящиеся в группе Гости, не могут оставлять комментарии в данной новости.

        ↓ Меню




        ↓ Опрос

        Вы добавили сайт в закладки?
        Да
        Нет


        Популярное