.
Авторизация | Регистрация
bitok.xyz
» » Мошенники / Serving Sara (2002) WEB-DLRip [H.264] торрент скачать бесплатно


    Мошенники / Serving Sara (2002) WEB-DLRip [H.264] торрент скачать бесплатно

    Дата: 1-01-2020, 05:00 | .torrent скачали: 0

    Мошенники / Serving Sara (2002) WEB-DLRip [H.264]Производство: Германия, США/FTM Productions, Halsted Pictures, Illusion Entertainment, KC Medien AG, Mandalay Pictures, MP Movies Management
    Жанр: Мелодрама, Комедия
    Режиссер: Реджинальд Хадлин
    Продюсер: Дэн Халстед, Дэн Колсруд, Роланд Пеллегрино

    Актеры
    Мэттью Перри, Элизабет Хёрли, Винсент Пасторе, Брюс Кэмпбелл, Седрик Развлекатель, Эми Адамс, Терри Крюс, Джерри Стиллер, Маршалл Белл, Дерек Саузерс

    Описание

    Гордон и Сара Мур — не совсем обычная супружеская пара. Сара — типичная англичанка, Гордон — типичный техасец. Благодаря совместным усилиям их скотоводческое ранчо приносит огромные доходы. Прощаясь с мужем в аэропорту и садясь в самолет, направляющийся в Нью-Йорк, Сара и подумать не могла, какой сюрприз приготовил ей благоверный. В его жизни появилась другая женщина, и он хочет развестись…

    Возраст: 16+ (зрителям, достигшим 16 лет)
    Рейтинг MPAA: PG-13 (детям до 13 лет просмотр нежелателен)
    Релиз от: Охрана (NNMCLUB)
    Продолжительность: 01: 40: 09
    Качество видео: WEB-DLRip
    Перевод: Дублированный, двуголосый профессиональный, авторский
    Субтитры: Русские, английские
    Видео: AVC/H.264, 1024x576, ~3025 Kbps
    Аудио 1: AC3, 6 ch, 448 Kbps, 48.0 kHz – Русский Dub, Невафильм
    Аудио 2: AC3, 2 ch, 192 Kbps, 48.0 kHz – Русский DVO
    Аудио 3: AC3, 2 ch, 192 Kbps, 48.0 kHz – Русский AVO, В. Королёв
    Аудио 4: AC3, 2 ch, 192 Kbps, 48.0 kHz – Английский
    Общее
    Уникальный идентификатор : 209331632743522556395755507851719072644 (0x9D7BCE54C25869D2837664F1D387DB84)
    Полное имя : B: DownloadsМошенники. 2002. NNMCLUB.mkv
    Формат : Matroska
    Версия формата : Version 4/Version 2
    Размер файла : 2, 83 Гбайт
    Продолжительность : 1 ч. 40 м.
    Общий поток : 4051 Кбит/сек
    Дата кодирования : UTC 2019-12-31 08: 07: 46
    Программа кодирования : mkvmerge v7.9.0 (\'Birds\') 64bit
    Библиотека кодирования : libebml v1.3.1 + libmatroska v1.4.2
    Видео
    Идентификатор : 1
    Формат : AVC
    Формат/Информация : Advanced Video Codec
    Профиль формата : High@L4.1
    Настройки формата : CABAC/12 Ref Frames
    Параметр CABAC формата : Да
    Параметр RefFrames формата : 12 кадров
    Идентификатор кодека : V_MPEG4/ISO/AVC
    Продолжительность : 1 ч. 40 м.
    Битрейт : 3025 Кбит/сек
    Ширина : 1024 пикселя
    Высота : 576 пикселей
    Соотношение сторон : 16: 9
    Режим частоты кадров : Постоянный
    Частота кадров : 23, 976 (24000/1001) кадра/сек
    Цветовое пространство : YUV
    Субдискретизация насыщенности : 4: 2: 0
    Битовая глубина : 8 бит
    Тип развёртки : Прогрессивная
    Бит/(Пиксели*Кадры) : 0.214
    Размер потока : 2, 12 Гбайт (75%)
    Заголовок : Serving Sara
    Библиотека кодирования : x264 core 146 r2538 121396c
    Настройки программы : cabac=1/ref=12/deblock=1: -1: -1/analyse=0x3: 0x113/me=umh/subme=10/psy=1/psy_rd=1.00: 0.10/mixed_ref=1/me_range=32/chroma_me=1/trellis=2/8x8dct=1/cqm=0/deadzone=21, 11/fast_pskip=0/chroma_qp_offset=-3/threads=6/lookahead_threads=1/sliced_threads=0/nr=0/decimate=0/interlaced=0/bluray_compat=0/constrained_intra=0/bframes=7/b_pyramid=2/b_adapt=2/b_bias=0/direct=3/weightb=1/open_gop=0/weightp=2/keyint=250/keyint_min=25/scenecut=40/intra_refresh=0/rc_lookahead=60/rc=2pass/mbtree=1/bitrate=3025/ratetol=1.0/qcomp=0.60/qpmin=0/qpmax=69/qpstep=4/cplxblur=20.0/qblur=0.5/vbv_maxrate=14000/vbv_bufsize=14000/nal_hrd=none/filler=0/ip_ratio=1.40/aq=1: 1.00
    Язык : English
    Default : Да
    Forced : Нет
    Аудио #1
    Идентификатор : 2
    Формат : AC-3
    Формат/Информация : Audio Coding 3
    Идентификатор кодека : A_AC3
    Продолжительность : 1 ч. 40 м.
    Вид битрейта : Постоянный
    Битрейт : 448 Кбит/сек
    Каналы : 6 каналов
    Расположение каналов : Front: L C R, Side: L R, LFE
    Частота : 48, 0 КГц
    Частота кадров : 31, 250 кадров/сек (1536 SPF)
    Битовая глубина : 16 бит
    Метод сжатия : С потерями
    Размер потока : 321 Мбайт (11%)
    Заголовок : Дублированный, Невафильм
    Язык : Russian
    ServiceKind/String : Complete Main
    Default : Да
    Forced : Нет
    Аудио #2
    Идентификатор : 3
    Формат : AC-3
    Формат/Информация : Audio Coding 3
    Идентификатор кодека : A_AC3
    Продолжительность : 1 ч. 40 м.
    Вид битрейта : Постоянный
    Битрейт : 192 Кбит/сек
    Каналы : 2 канала
    Расположение каналов : Front: L R
    Частота : 48, 0 КГц
    Частота кадров : 31, 250 кадров/сек (1536 SPF)
    Битовая глубина : 16 бит
    Метод сжатия : С потерями
    Размер потока : 138 Мбайт (5%)
    Заголовок : Двухголосый закадровый
    Язык : Russian
    ServiceKind/String : Complete Main
    Default : Нет
    Forced : Нет
    Аудио #3
    Идентификатор : 4
    Формат : AC-3
    Формат/Информация : Audio Coding 3
    Идентификатор кодека : A_AC3
    Продолжительность : 1 ч. 40 м.
    Вид битрейта : Постоянный
    Битрейт : 192 Кбит/сек
    Каналы : 2 канала
    Расположение каналов : Front: L R
    Частота : 48, 0 КГц
    Частота кадров : 31, 250 кадров/сек (1536 SPF)
    Битовая глубина : 16 бит
    Метод сжатия : С потерями
    Размер потока : 138 Мбайт (5%)
    Заголовок : Авторский, В. Королёв
    Язык : Russian
    ServiceKind/String : Complete Main
    Default : Нет
    Forced : Нет
    Аудио #4
    Идентификатор : 5
    Формат : AC-3
    Формат/Информация : Audio Coding 3
    Идентификатор кодека : A_AC3
    Продолжительность : 1 ч. 40 м.
    Вид битрейта : Постоянный
    Битрейт : 192 Кбит/сек
    Каналы : 2 канала
    Расположение каналов : Front: L R
    Частота : 48, 0 КГц
    Частота кадров : 31, 250 кадров/сек (1536 SPF)
    Битовая глубина : 16 бит
    Метод сжатия : С потерями
    Размер потока : 138 Мбайт (5%)
    Заголовок : Английский
    Язык : English
    ServiceKind/String : Complete Main
    Default : Нет
    Forced : Нет
    Текст #1
    Идентификатор : 6
    Формат : UTF-8
    Идентификатор кодека : S_TEXT/UTF8
    Идентификатор кодека/Информация : UTF-8 Plain Text
    Продолжительность : 1 ч. 32 м.
    Битрейт : 86 бит/сек
    ElementCount : 1249
    Размер потока : 58, 6 Кбайт (0%)
    Заголовок : Full
    Язык : Russian
    Default : Нет
    Forced : Нет
    Текст #2
    Идентификатор : 7
    Формат : UTF-8
    Идентификатор кодека : S_TEXT/UTF8
    Идентификатор кодека/Информация : UTF-8 Plain Text
    Продолжительность : 1 ч. 32 м.
    Битрейт : 71 бит/сек
    ElementCount : 1690
    Размер потока : 48, 4 Кбайт (0%)
    Заголовок : SDH
    Язык : English
    Default : Нет
    Forced : Нет

    Скриншоты для ознакомления




    Все одноименные релизы в Клубе
    Время раздачи: с 13: 00 до 01: 00 МСК, выходные круглосуточно (до появления первых 3-5 скачавших)

    Онлайн видео Мошенники



    Мошенники/Serving Sara (2002) WEB-DLRip [H.264]
    Рейтинг →
     (голосов: 1, оценка 4/5, голосовать можно 1 раз )

    Другие торренты по теме:

  • Мошенники / Serving Sara (2002) DVDRip [H.264] скачать через торрент бесплатно
  • Мошенники / Serving Sara (2002) WEB-DL [1080p] ATV


    • Комментарии (0):

      Информация

      Информация

        Посетители, находящиеся в группе Гости, не могут оставлять комментарии в данной новости.

        ↓ Меню




        ↓ Опрос

        Вы добавили сайт в закладки?
        Да
        Нет


        Популярное