.
Авторизация | Регистрация
bitok.xyz
» » Джон Уик / John Wick (2014-2019) UHD BDRip [H.265 / 2160p-LQ] [4K, HDR, 10-bit] [PR] [Трилогия] торрент скачать бесплатно


    Джон Уик / John Wick (2014-2019) UHD BDRip [H.265 / 2160p-LQ] [4K, HDR, 10-bit] [PR] [Трилогия] торрент скачать бесплатно

    Дата: 1-01-2020, 05:00 | .torrent скачали: 0

    Джон Уик / John Wick (2014-2019) UHD BDRip [H.265 / 2160p-LQ] [4K, HDR, 10-bit] [PR] [Трилогия]Производство: Китай, США, Гонконг/87Eleven, Lionsgate, Summit Entertainment, Thunder Road, DefyNite Films, MJW Films
    Жанр: Боевик, Триллер, Криминал
    Режиссер: Чад Стахелски, Дэвид Литч

    Актеры
    Киану Ривз, Микаэл Нюквист, Иэн МакШейн, Лэнс Реддик, Дэниэл Бернхард, Бриджет Риган, Эдрианн Палики, Элфи Оуэн-Аллен, Уиллем Дефо, Дин Уинтерс, Омер Барнеа, Тоби Мур, Бриджет Мойнэхэн

    Описание

    Джон Уик - американская медиафраншиза, состоящая из боевиков, созданных Дереком Колстадом и режиссёром Чадом Стахелски. Первый фильм также включал Дэвида Литча как неаккредитованного сорежиссера. Киану Ривз играет одноименного персонажа - бывшего наёмного убийцу, жаждущего мести.
    Серия началась в 2014 году с выпуска Джона Уика. За ним последовал сиквел, который было выпущен в 2017 году. Оба фильма были успешными как в критическом, так и в коммерческом отношении. Первый фильм собрал 88, 8 млн. долл. США по всему миру и имеет 86% рейтинг одобрения Rotten Tomatoes, в то время как второй фильм получил оценку 89% и собрал 171, 2 млн. долл. США во всем мире.
    Третий фильм был выпущен 17 мая 2019 года. Франшиза будет продолжатся в виде дополнительных фильмов, а также телесериала под названием Континенталь от канала Starz.
    Релиз от: DTOne
    Продолжительность: 01: 41: 12/02: 02: 23/02: 10: 46
    Качество видео: UHD BDRip
    Перевод: Дублированный, Авторский x5, Многоголосый закадровый
    Субтитры: русские, английские
    Видео: HEVC/H.265, 3840x1600, ~13, 6-15, 6 Mbps
    Аудио 1: AC3, 6 ch, 640 Kbps (английский)
    Аудио 2: AC3, 6 ch, 384 Kbps (русский, дубляж - iTunes)
    Аудио 3: AC3, 6 ch, 384-640 Kbps (русский, одноголосый - Д. Есарев (ненормативная лексика)
    Аудио 4: AC3, 6 ch, 384-640 Kbps (русский, одноголосый - А. Матвеев (ненормативная лексика)
    Аудио 5: AC3, 6 ch, 640 Kbps (русский, одноголосый - Ю. Живов)
    Аудио 6: AC3, 6 ch, 640 Kbps (русский, одноголосый - Л. Володарский)
    Аудио 7: AC3, 6 ch, 640 Kbps (русский, одноголосый - А. Гаврилов)Джон Уик/John Wick (2014) UHD BDRip H.265/2160p 4K, HDR, 10-bit
    Производство: Китай, США/Company Films, Huayi Brothers Media, Poquito Productions, Thunder Road, Unbelievable Entertainment
    Жанр: Боевик, Триллер, Криминал
    Режиссер: Чад Стахелски, Дэвид Литч

    Актеры
    Элфи Оуэн-Аллен, Уиллем Дефо, Дин Уинтерс, Эдрианн Палики, Омер Барнеа, Тоби Мур, Дэниэл Бернхард, Бриджет Мойнэхэн

    Описание

    Джон Уик — на первый взгляд, самый обычный среднестатистический американец, который ведет спокойную мирную жизнь. Однако мало кто знает, что он был наёмным убийцей, причём одним из лучших профессионалов в своём деле.
    После того как сынок главы бандитской группы со своими приятелями угоняет его любимый Мустанг 1969 года выпуска, при этом убив его собаку Дейзи, которая была подарком недавно почившей супруги, Джон вынужден вернуться к своему прошлому. Теперь Уик начинает охоту за теми, кто имел неосторожность перейти ему дорогу, и он готов на всё, чтобы отомстить.

    Возраст: 16+ (зрителям, достигшим 16 лет)
    Рейтинг MPAA: R (лицам до 17 лет обязательно присутствие взрослого)
    Релиз от: DTOne
    Продолжительность: 01: 41: 12
    Качество видео: UHD BDRip
    Перевод: Дублированный, Авторский x5
    Субтитры: русские (форсированные, полные), английские (полные, для слабослышащих)
    Видео: HEVC/H.265, 3840x1600, ~13, 6 Mbps
    Аудио 1: AC3, 6 ch, 640 Kbps (английский)
    Аудио 2: AC3, 6 ch, 384 Kbps (русский, дубляж - iTunes)
    Аудио 3: AC3, 6 ch, 640 Kbps (русский, одноголосый - Д. Есарев (ненормативная лексика)
    Аудио 4: AC3, 6 ch, 640 Kbps (русский, одноголосый - А. Матвеев (ненормативная лексика)
    Аудио 5: AC3, 6 ch, 640 Kbps (русский, одноголосый - Ю. Живов)
    Аудио 6: AC3, 6 ch, 640 Kbps (русский, одноголосый - Л. Володарский)
    Аудио 7: AC3, 6 ch, 640 Kbps (русский, одноголосый - А. Гаврилов)
    Общее
    Уникальный идентификатор : 306960173172937803254038035081145475750 (0xE6EE6101374E2510679903393AC5E2A6)
    Полное имя : M: ФильмыИностранныеДжон Уик (John Wick)2014 Джон Уик (John Wick).mkv
    Формат : Matroska
    Версия формата : Version 4/Version 2
    Размер файла : 12, 6 Гбайт
    Продолжительность : 1 ч. 41 м.
    Общий поток : 17, 8 Мбит/сек
    Название фильма : Джон Уик/John Wick
    Кодирование произвёл : DTOne
    Дата выпуска : 2014
    Дата кодирования : UTC 2019-12-01 06: 57: 36
    Программа кодирования : mkvmerge v34.0.0 (\'Sight and Seen\') 64-bit
    Библиотека кодирования : libebml v1.3.7 + libmatroska v1.5.0
    Обложка : Yes
    Attachments : cover.jpg
    Released by : Buba5473 for NNM-Club
    Видео
    Идентификатор : 1
    Формат : HEVC
    Формат/Информация : High Efficiency Video Coding
    Профиль формата : Main10@L5.1@High
    Идентификатор кодека : V_MPEGH/ISO/HEVC
    Продолжительность : 1 ч. 41 м.
    Битрейт : 13, 6 Мбит/сек
    Ширина : 3840 пикселей
    Высота : 1600 пикселей
    Соотношение сторон : 2, 40: 1
    Режим частоты кадров : Постоянный
    Частота кадров : 23, 976 (24000/1001) кадра/сек
    Цветовое пространство : YUV
    Субдискретизация насыщенности : 4: 2: 0 (Type 2)
    Битовая глубина : 10 бит
    Бит/(Пиксели*Кадры) : 0.092
    Размер потока : 9, 62 Гбайт (76%)
    Заголовок : John Wick 2014.UHD.BluRay.2160p.x265.HDR.Atmos.7.1.En+Hi-DTOne
    Библиотека кодирования : x265 2.5+47-6a882a9300c2: WindowsGCC 7.2.064 bit 10bit
    Настройки программы : cpuid=1173503/frame-threads=5/numa-pools=36/wpp/no-pmode/no-pme/no-psnr/no-ssim/log-level=2/input-csp=1/input-res=3840x1600/interlace=0/total-frames=0/level-idc=51/high-tier=1/uhd-bd=0/ref=5/no-allow-non-conformance/repeat-t_heads/annexb/aud/hrd/info/hash=0/no-temporal-layers/no-open-gop/min-keyint=1/keyint=360/bframes=9/b-adapt=2/b-pyramid/bframe-bias=0/rc-lookahead=60/lookahead-slices=4/scenecut=40/no-intra-refresh/ctu=32/min-cu-size=8/no-rect/no-amp/max-tu-size=32/tu-inter-depth=2/tu-intra-depth=2/limit-tu=4/rdoq-level=1/dynamic-rd=0.00/ssim-rd/signhide/no-tskip/nr-intra=0/nr-inter=0/no-constrained-intra/no-strong-intra-smoothing/max-merge=3/limit-refs=2/limit-modes/me=3/subme=5/merange=25/temporal-mvp/weightp/weightb/no-analyze-src-pics/deblock=-1: -1/no-sao/no-sao-non-deblock/rd=4/no-early-skip/no-rskip/no-fast-intra/no-tskip-fast/no-cu-lossless/b-intra/no-splitrd-skip/rdpenalty=1/psy-rd=0.00/psy-rdoq=5.00/no-rd-refine/analysis-reuse-mode=0/no-lossless/cbqpoffs=-3/crqpoffs=-3/rc=crf/crf=17.0/qcomp=0.70/qpstep=4/stats-write=0/stats-read=0/vbv-maxrate=100000/vbv-bufsize=100000/vbv-init=0.9/crf-max=0.0/crf-min=0.0/ipratio=1.30/pbratio=1.20/aq-mode=3/aq-strength=0.90/cutree/zone-count=0/no-strict-cbr/qg-size=32/no-rc-grain/qpmax=69/qpmin=0/no-const-vbv/sar=1/overscan=0/videoformat=5/range=0/colorprim=9/transfer=16/colormatrix=9/chromaloc=1/chromaloc-top=2/chromaloc-bottom=2/display-window=0/master-display=G(13250, 34500)B(7500, 3000)R(34000, 16000)WP(15635, 16450)L(10000000, 0)/max-cll=1000, 169/min-luma=0/max-luma=1023/log2-max-poc-lsb=8/vui-timing-info/vui-hrd-info/slices=1/opt-qp-pps/opt-ref-list-length-pps/no-multi-pass-opt-rps/scenecut-bias=0.05/no-opt-cu-delta-qp/no-aq-motion/hdr/hdr-opt/no-dhdr10-opt/analysis-reuse-level=5/scale-factor=0/refine-intra=0/refine-inter=0/refine-mv=0/no-limit-sao/ctu-info=0/no-lowpass-dct/refine-mv-type=0
    Язык : English
    Default : Да
    Forced : Нет
    Color range : Limited
    Основные цвета : BT.2020
    Характеристики трансфера : SMPTE ST 2084
    Коэффициенты матрицы : BT.2020 non-constant
    Mastering display color primaries : R: x=0.680000 y=0.320000, G: x=0.265000 y=0.690000, B: x=0.150000 y=0.060000, White point: x=0.312700 y=0.329000
    Mastering display luminance : min: 0.0000 cd/m2, max: 1000.0000 cd/m2
    Maximum Content Light Level : 1000 cd/m2
    Maximum Frame-Average Light Level : 169 cd/m2
    Аудио #1
    Идентификатор : 2
    Формат : AC-3
    Формат/Информация : Audio Coding 3
    Параметр Endianness формата : Big
    Идентификатор кодека : A_AC3
    Продолжительность : 1 ч. 41 м.
    Вид битрейта : Постоянный
    Битрейт : 640 Кбит/сек
    Каналы : 6 каналов
    Расположение каналов : Front: L C R, Side: L R, LFE
    Частота : 48, 0 КГц
    Частота кадров : 31, 250 кадров/сек (1536 SPF)
    Битовая глубина : 16 бит
    Метод сжатия : С потерями
    Размер потока : 463 Мбайт (4%)
    Язык : English
    Service kind : Complete Main
    Default : Нет
    Forced : Нет
    Аудио #2
    Идентификатор : 5
    Формат : AC-3
    Формат/Информация : Audio Coding 3
    Параметр Endianness формата : Big
    Идентификатор кодека : A_AC3
    Продолжительность : 1 ч. 41 м.
    Вид битрейта : Постоянный
    Битрейт : 384 Кбит/сек
    Каналы : 6 каналов
    Расположение каналов : Front: L C R, Side: L R, LFE
    Частота : 48, 0 КГц
    Частота кадров : 31, 250 кадров/сек (1536 SPF)
    Битовая глубина : 16 бит
    Метод сжатия : С потерями
    Задержка видео : 790 мс.
    Размер потока : 278 Мбайт (2%)
    Заголовок : Перевод: Профессиональный (полное дублирование) iTunes
    Язык : Russian
    Service kind : Complete Main
    Default : Да
    Forced : Нет
    Аудио #3
    Идентификатор : 6
    Формат : AC-3
    Формат/Информация : Audio Coding 3
    Параметр Endianness формата : Big
    Идентификатор кодека : A_AC3
    Продолжительность : 1 ч. 41 м.
    Вид битрейта : Постоянный
    Битрейт : 640 Кбит/сек
    Каналы : 6 каналов
    Расположение каналов : Front: L C R, Side: L R, LFE
    Частота : 48, 0 КГц
    Частота кадров : 31, 250 кадров/сек (1536 SPF)
    Битовая глубина : 16 бит
    Метод сжатия : С потерями
    Задержка видео : 790 мс.
    Размер потока : 463 Мбайт (4%)
    Заголовок : Перевод: Одноголосый закадровый Д. Есарев
    Язык : Russian
    Service kind : Complete Main
    Default : Нет
    Forced : Нет
    Аудио #4
    Идентификатор : 7
    Формат : AC-3
    Формат/Информация : Audio Coding 3
    Параметр Endianness формата : Big
    Идентификатор кодека : A_AC3
    Продолжительность : 1 ч. 41 м.
    Вид битрейта : Постоянный
    Битрейт : 640 Кбит/сек
    Каналы : 6 каналов
    Расположение каналов : Front: L C R, Side: L R, LFE
    Частота : 48, 0 КГц
    Частота кадров : 31, 250 кадров/сек (1536 SPF)
    Битовая глубина : 16 бит
    Метод сжатия : С потерями
    Задержка видео : 790 мс.
    Размер потока : 463 Мбайт (4%)
    Заголовок : Перевод: Одноголосый закадровый А. Матвеев aka. Doctor_Joker
    Язык : Russian
    Service kind : Complete Main
    Default : Нет
    Forced : Нет
    Аудио #5
    Идентификатор : 8
    Формат : AC-3
    Формат/Информация : Audio Coding 3
    Параметр Endianness формата : Big
    Идентификатор кодека : A_AC3
    Продолжительность : 1 ч. 41 м.
    Вид битрейта : Постоянный
    Битрейт : 640 Кбит/сек
    Каналы : 6 каналов
    Расположение каналов : Front: L C R, Side: L R, LFE
    Частота : 48, 0 КГц
    Частота кадров : 31, 250 кадров/сек (1536 SPF)
    Битовая глубина : 16 бит
    Метод сжатия : С потерями
    Задержка видео : 790 мс.
    Размер потока : 463 Мбайт (4%)
    Заголовок : Перевод: Авторский (одноголосый закадровый) Ю. Живов
    Язык : Russian
    Service kind : Complete Main
    Default : Нет
    Forced : Нет
    Аудио #6
    Идентификатор : 9
    Формат : AC-3
    Формат/Информация : Audio Coding 3
    Параметр Endianness формата : Big
    Идентификатор кодека : A_AC3
    Продолжительность : 1 ч. 41 м.
    Вид битрейта : Постоянный
    Битрейт : 640 Кбит/сек
    Каналы : 6 каналов
    Расположение каналов : Front: L C R, Side: L R, LFE
    Частота : 48, 0 КГц
    Частота кадров : 31, 250 кадров/сек (1536 SPF)
    Битовая глубина : 16 бит
    Метод сжатия : С потерями
    Задержка видео : 790 мс.
    Размер потока : 463 Мбайт (4%)
    Заголовок : Перевод: Авторский (одноголосый закадровый) Л. Володарский
    Язык : Russian
    Service kind : Complete Main
    Default : Нет
    Forced : Нет
    Аудио #7
    Идентификатор : 10
    Формат : AC-3
    Формат/Информация : Audio Coding 3
    Параметр Endianness формата : Big
    Идентификатор кодека : A_AC3
    Продолжительность : 1 ч. 41 м.
    Вид битрейта : Постоянный
    Битрейт : 640 Кбит/сек
    Каналы : 6 каналов
    Расположение каналов : Front: L C R, Side: L R, LFE
    Частота : 48, 0 КГц
    Частота кадров : 31, 250 кадров/сек (1536 SPF)
    Битовая глубина : 16 бит
    Метод сжатия : С потерями
    Задержка видео : 790 мс.
    Размер потока : 463 Мбайт (4%)
    Заголовок : Перевод: Авторский (одноголосый закадровый) А. Гаврилов
    Язык : Russian
    Service kind : Complete Main
    Default : Нет
    Forced : Нет
    Текст #1
    Идентификатор : 3
    Формат : PGS
    Режим смешивания : zlib
    Идентификатор кодека : S_HDMV/PGS
    Идентификатор кодека/Информация : Picture based subtitle format used on BDs/HD-DVDs
    Продолжительность : 1 ч. 33 м.
    Битрейт : 16, 4 Кбит/сек
    Count of elements : 1112
    Размер потока : 11, 0 Мбайт (0%)
    Язык : English
    Default : Нет
    Forced : Нет
    Текст #2
    Идентификатор : 4
    Формат : PGS
    Режим смешивания : zlib
    Идентификатор кодека : S_HDMV/PGS
    Идентификатор кодека/Информация : Picture based subtitle format used on BDs/HD-DVDs
    Продолжительность : 1 ч. 40 м.
    Битрейт : 22, 6 Кбит/сек
    Count of elements : 1742
    Размер потока : 16, 3 Мбайт (0%)
    Заголовок : SDH
    Язык : English
    Default : Нет
    Forced : Нет
    Текст #3
    Идентификатор : 11
    Формат : UTF-8
    Идентификатор кодека : S_TEXT/UTF8
    Идентификатор кодека/Информация : UTF-8 Plain Text
    Продолжительность : 1 ч. 40 м.
    Битрейт : 33 бит/сек
    Count of elements : 550
    Размер потока : 24, 9 Кбайт (0%)
    Заголовок : Полные
    Язык : Russian
    Default : Нет
    Forced : Нет
    Текст #4
    Идентификатор : 12
    Формат : UTF-8
    Идентификатор кодека : S_TEXT/UTF8
    Идентификатор кодека/Информация : UTF-8 Plain Text
    Продолжительность : 1 ч. 13 м.
    Битрейт : 3 бит/сек
    Count of elements : 54
    Размер потока : 1, 97 Кбайт (0%)
    Заголовок : Форсированные (А. Матвеев)
    Язык : Russian
    Default : Да
    Forced : Нет
    Текст #5
    Идентификатор : 13
    Формат : UTF-8
    Идентификатор кодека : S_TEXT/UTF8
    Идентификатор кодека/Информация : UTF-8 Plain Text
    Продолжительность : 1 ч. 34 м.
    Битрейт : 39 бит/сек
    Count of elements : 619
    Размер потока : 27, 2 Кбайт (0%)
    Заголовок : А. Матвеев (цензура)
    Язык : Russian
    Default : Нет
    Forced : Нет
    Текст #6
    Идентификатор : 14
    Формат : UTF-8
    Идентификатор кодека : S_TEXT/UTF8
    Идентификатор кодека/Информация : UTF-8 Plain Text
    Продолжительность : 1 ч. 34 м.
    Битрейт : 39 бит/сек
    Count of elements : 618
    Размер потока : 27, 2 Кбайт (0%)
    Заголовок : А. Матвеев (без цензуры)
    Язык : Russian
    Default : Нет
    Forced : Нет
    Текст #7
    Идентификатор : 15
    Формат : UTF-8
    Идентификатор кодека : S_TEXT/UTF8
    Идентификатор кодека/Информация : UTF-8 Plain Text
    Продолжительность : 1 ч. 33 м.
    Битрейт : 40 бит/сек
    Count of elements : 633
    Размер потока : 27, 9 Кбайт (0%)
    Заголовок : Д. Нурмухаметов
    Язык : Russian
    Default : Нет
    Forced : Нет
    Текст #8
    Идентификатор : 16
    Формат : UTF-8
    Идентификатор кодека : S_TEXT/UTF8
    Идентификатор кодека/Информация : UTF-8 Plain Text
    Продолжительность : 1 ч. 14 м.
    Битрейт : 2 бит/сек
    Count of elements : 69
    Размер потока : 1, 36 Кбайт (0%)
    Заголовок : Forced
    Язык : English
    Default : Нет
    Forced : Нет
    Меню
    00: 00: 00.000 : en: Chapter 01
    00: 04: 57.505 : en: Chapter 02
    00: 12: 21.865 : en: Chapter 03
    00: 17: 07.734 : en: Chapter 04
    00: 26: 25.166 : en: Chapter 05
    00: 32: 40.249 : en: Chapter 06
    00: 36: 24.598 : en: Chapter 07
    00: 42: 16.033 : en: Chapter 08
    00: 45: 33.272 : en: Chapter 09
    00: 55: 02.507 : en: Chapter 10
    00: 59: 27.563 : en: Chapter 11
    01: 06: 13.427 : en: Chapter 12
    01: 14: 15.909 : en: Chapter 13
    01: 19: 13.039 : en: Chapter 14
    01: 27: 29.786 : en: Chapter 15
    01: 32: 24.789 : en: Chapter 16
    XMP
    Xmp.video.FileName : M: ФильмыИностранныеДжон Уик (John Wick)2014 Джон Уик (John Wick).mkv
    Xmp.video.FileSize : -9.53674e-007
    Xmp.video.MimeType : video/matroska
    Xmp.video.EBMLVersion : 1
    Xmp.video.EBMLReadVersion : 1
    Xmp.video.DocType : matroska
    Xmp.video.DocTypeVersion : 4
    Xmp.video.DocTypeReadVersion : 2
    Xmp.video.TimecodeScale : 0.001
    Xmp.video.MuxingApp : libebml v1.3.7 + libmatroska v1.5.0
    Xmp.video.WritingApp : mkvmerge v34.0.0 (\'Sight and Seen\') 64-bit
    Xmp.video.Duration : 6072246
    Xmp.video.DateUTC : 596876256
    Xmp.video.Title : Джон Уик/John Wick
    Xmp.video.TotalStream : 57
    Xmp.video.TrackLacing : No
    Xmp.video.Codec : V_MPEGH/ISO/HEVC
    Xmp.video.FrameRate : 23.976
    Xmp.video.TrackName : Forced
    Xmp.video.Width : 3840
    Xmp.video.Height : 1600
    Xmp.audio.DefaultOn : No
    Xmp.audio.Compressor : A_AC3
    Xmp.audio.DefaultDuration : 32000
    Xmp.audio.SampleRate : 48000
    Xmp.video.SubTDefaultOn : No
    Xmp.video.SubTTrackLacing : No
    Xmp.video.SubTCodec : S_TEXT/UTF8
    Xmp.audio.TrackLang : rus
    Xmp.video.SubTLang : rus
    Xmp.video.AttachFileName : cover.jpg
    Xmp.video.AttachFileMIME : image/jpeg
    Xmp.video.AttachFileUID : 8549835107945738847
    Xmp.video.AttachFileDesc : Cover
    Xmp.video.AspectRatio : 2.4
    H.265/HEVC (High Efficiency Video Coding) - это новый стандарт кодирования видео.
    *Рипы в фомате HEVC, в настоящее время поддерживается не всеми аппаратными проигрывателями.
    *Для корректного воспроизведения может потребоваться обновление ПО.
    *Стандарт H.265/HEVC является логическим продолжением стандарта H.264/AVC (Advanced Video Coding), и характеризуется более эффективными алгоритмами сжатия, а также поддержкой высокого разрешения вплоть до 8K UHD (8192x4320). Первая версия стандарта H.265 была опубликована в начале 2013 года.
    Любителям решения из коробки - установить последнюю версию на выбор:
    Media Player Classic - Black Edition (MPC-BE)
    VLC media player
    Daum Pot Player
    GOM Media Player
    Любителям WMP и других плееров, использующих по умолчанию для воспроизведения системные кодеки+сплитеры - установить K-Lite Codec Pack версии 10.1.0 и выше.
    Любимые плееры, не использующии по умолчанию для воспроизведения системные кодеки+сплитеры, нужно перенастроить на использование оных.Исходный диск на Blu-ray.com
    Просмотр 4K HDR-контента на ПК

    Скриншоты для ознакомления



    Джон Уик в Клубе Джон Уик 2/John Wick: Chapter Two (2017) UHD BDRip H.265/2160p 4K, HDR, 10-bit
    Производство: США, Гонконг/87Eleven, Lionsgate, Summit Entertainment, Thunder Road
    Жанр: Боевик, Триллер, Криминал
    Режиссер: Чад Стахелски

    Актеры
    Риккардо Скамарчио, Руби Роуз, Коммон, Клаудия Джерини, Джон Легуизамо

    Описание

    Когда бывший коллега Джона решает взять под свой контроль таинственную гильдию убийц, Уик вынужден выйти из отставки. Ведомый кровавой клятвой Джон отправляется в Рим, где ему придется сразиться с одними из самых опасных киллеров в мире.

    Возраст: 18+ (зрителям, достигшим 18 лет. запрещено для детей)
    Рейтинг MPAA: R (лицам до 17 лет обязательно присутствие взрослого)
    Релиз от: DTOne
    Продолжительность: 02: 02: 23
    Качество видео: UHD BDRip
    Перевод: Дублированный, Авторский x3
    Субтитры: русские, английские (полные, для слабослышащих)
    Видео: HEVC/H.265, 3840x1600, ~13, 1 Mbps
    Аудио 1: AC3, 6 ch, 640 Kbps (английский)
    Аудио 2: AC3, 6 ch, 384 Kbps (русский, дубляж - iTunes)
    Аудио 3: AC3, 6 ch, 384 Kbps (русский, одноголосый - Д. Есарев (ненормативная лексика)
    Аудио 4: AC3, 6 ch, 384 Kbps (русский, одноголосый - А. Матвеев (ненормативная лексика)
    Аудио 5: AC3, 6 ch, 640 Kbps (русский, одноголосый - Ю. Живов)
    Общее
    Уникальный идентификатор : 227859611670588331116915849458213350418 (0xAB6C2A38698C44F59AE8E58346BA6C12)
    Полное имя : M: ФильмыИностранныеДжон Уик (John Wick)2017 Джон Уик 2 (John Wick. Chapter 2).mkv
    Формат : Matroska
    Версия формата : Version 4/Version 2
    Размер файла : 13, 3 Гбайт
    Продолжительность : 2 ч. 2 м.
    Общий поток : 15, 6 Мбит/сек
    Название фильма : Джон Уик 2/John Wick: Chapter Two
    Кодирование произвёл : DTOne
    Дата выпуска : 2017
    Дата кодирования : UTC 2019-10-31 08: 28: 50
    Программа кодирования : mkvmerge v34.0.0 (\'Sight and Seen\') 64-bit
    Библиотека кодирования : libebml v1.3.7 + libmatroska v1.5.0
    Обложка : Yes
    Attachments : cover.jpg
    Released by : Buba5473 for NNM-Club
    Видео
    Идентификатор : 1
    Формат : HEVC
    Формат/Информация : High Efficiency Video Coding
    Профиль формата : Main10@L5.1@High
    Идентификатор кодека : V_MPEGH/ISO/HEVC
    Продолжительность : 2 ч. 2 м.
    Битрейт : 13, 1 Мбит/сек
    Ширина : 3840 пикселей
    Высота : 1600 пикселей
    Соотношение сторон : 2, 40: 1
    Режим частоты кадров : Постоянный
    Частота кадров : 23, 976 (24000/1001) кадра/сек
    Цветовое пространство : YUV
    Субдискретизация насыщенности : 4: 2: 0 (Type 2)
    Битовая глубина : 10 бит
    Бит/(Пиксели*Кадры) : 0.089
    Размер потока : 11, 2 Гбайт (84%)
    Заголовок : John Wick Chapter 2 2017.Multi.UHD.2160p.Blu-ray.x265.HDR.Atmos.7.1.En+Hi-DTOne
    Библиотека кодирования : x265 2.5+27-0e168bdeb48b: WindowsGCC 6.2.164 bit 10bit
    Настройки программы : cpuid=1173503/frame-threads=4/numa-pools=16/wpp/no-pmode/no-pme/no-psnr/no-ssim/log-level=2/input-csp=1/input-res=3840x1600/interlace=0/total-frames=176062/level-idc=51/high-tier=1/uhd-bd=0/ref=4/no-allow-non-conformance/repeat-t_heads/annexb/aud/hrd/info/hash=0/no-temporal-layers/no-open-gop/min-keyint=1/keyint=24/bframes=4/b-adapt=2/b-pyramid/bframe-bias=0/rc-lookahead=25/lookahead-slices=4/scenecut=40/no-intra-refresh/ctu=64/min-cu-size=8/rect/no-amp/max-tu-size=32/tu-inter-depth=1/tu-intra-depth=1/limit-tu=0/rdoq-level=2/dynamic-rd=0.00/no-ssim-rd/signhide/no-tskip/nr-intra=0/nr-inter=0/no-constrained-intra/no-strong-intra-smoothing/max-merge=3/limit-refs=3/limit-modes/me=3/subme=3/merange=57/temporal-mvp/weightp/no-weightb/no-analyze-src-pics/deblock=-3: -3/no-sao/no-sao-non-deblock/rd=4/no-early-skip/rskip/no-fast-intra/no-tskip-fast/no-cu-lossless/no-b-intra/no-splitrd-skip/rdpenalty=0/psy-rd=2.00/psy-rdoq=1.00/no-rd-refine/analysis-reuse-mode=0/no-lossless/cbqpoffs=0/crqpoffs=0/rc=crf/crf=17.0/qcomp=0.60/qpstep=4/stats-write=0/stats-read=0/vbv-maxrate=160000/vbv-bufsize=160000/vbv-init=0.9/crf-max=0.0/crf-min=0.0/ipratio=1.40/pbratio=1.30/aq-mode=1/aq-strength=1.00/cutree/zone-count=0/no-strict-cbr/qg-size=32/no-rc-grain/qpmax=69/qpmin=0/no-const-vbv/sar=1/overscan=0/videoformat=5/range=0/colorprim=9/transfer=16/colormatrix=9/chromaloc=1/chromaloc-top=2/chromaloc-bottom=2/display-window=0/master-display=G(13250, 34500)B(7500, 3000)R(34000, 16000)WP(15635, 16450)L(10000000, 0)/max-cll=1000, 510/min-luma=0/max-luma=1023/log2-max-poc-lsb=8/vui-timing-info/vui-hrd-info/slices=1/opt-qp-pps/opt-ref-list-length-pps/no-multi-pass-opt-rps/scenecut-bias=0.05/no-opt-cu-delta-qp/no-aq-motion/hdr/hdr-opt/no-dhdr10-opt/analysis-reuse-level=5/scale-factor=0/refine-intra=0/refine-inter=0/refine-mv=0/no-limit-sao/ctu-info=0
    Язык : English
    Default : Да
    Forced : Нет
    Color range : Limited
    Основные цвета : BT.2020
    Характеристики трансфера : SMPTE ST 2084
    Коэффициенты матрицы : BT.2020 non-constant
    Mastering display color primaries : R: x=0.680000 y=0.320000, G: x=0.265000 y=0.690000, B: x=0.150000 y=0.060000, White point: x=0.312700 y=0.329000
    Mastering display luminance : min: 0.0000 cd/m2, max: 1000.0000 cd/m2
    Maximum Content Light Level : 1000 cd/m2
    Maximum Frame-Average Light Level : 510 cd/m2
    Аудио #1
    Идентификатор : 2
    Формат : AC-3
    Формат/Информация : Audio Coding 3
    Параметр Endianness формата : Big
    Идентификатор кодека : A_AC3
    Продолжительность : 2 ч. 2 м.
    Вид битрейта : Постоянный
    Битрейт : 640 Кбит/сек
    Каналы : 6 каналов
    Расположение каналов : Front: L C R, Side: L R, LFE
    Частота : 48, 0 КГц
    Частота кадров : 31, 250 кадров/сек (1536 SPF)
    Битовая глубина : 16 бит
    Метод сжатия : С потерями
    Размер потока : 560 Мбайт (4%)
    Язык : English
    Service kind : Complete Main
    Default : Нет
    Forced : Нет
    Аудио #2
    Идентификатор : 5
    Формат : AC-3
    Формат/Информация : Audio Coding 3
    Параметр Endianness формата : Big
    Идентификатор кодека : A_AC3
    Продолжительность : 2 ч. 2 м.
    Вид битрейта : Постоянный
    Битрейт : 384 Кбит/сек
    Каналы : 6 каналов
    Расположение каналов : Front: L C R, Side: L R, LFE
    Частота : 48, 0 КГц
    Частота кадров : 31, 250 кадров/сек (1536 SPF)
    Битовая глубина : 16 бит
    Метод сжатия : С потерями
    Размер потока : 336 Мбайт (2%)
    Заголовок : Перевод: Дублированный (iTunes)
    Язык : Russian
    Service kind : Complete Main
    Default : Да
    Forced : Нет
    Аудио #3
    Идентификатор : 6
    Формат : AC-3
    Формат/Информация : Audio Coding 3
    Параметр Endianness формата : Big
    Идентификатор кодека : A_AC3
    Продолжительность : 2 ч. 2 м.
    Вид битрейта : Постоянный
    Битрейт : 384 Кбит/сек
    Каналы : 6 каналов
    Расположение каналов : Front: L C R, Side: L R, LFE
    Частота : 48, 0 КГц
    Частота кадров : 31, 250 кадров/сек (1536 SPF)
    Битовая глубина : 16 бит
    Метод сжатия : С потерями
    Размер потока : 336 Мбайт (2%)
    Заголовок : Перевод: Авторский одноголосый (Д. Есарев) - ненормативная лексика
    Язык : Russian
    Service kind : Complete Main
    Default : Нет
    Forced : Нет
    Аудио #4
    Идентификатор : 7
    Формат : AC-3
    Формат/Информация : Audio Coding 3
    Параметр Endianness формата : Big
    Идентификатор кодека : A_AC3
    Продолжительность : 2 ч. 2 м.
    Вид битрейта : Постоянный
    Битрейт : 384 Кбит/сек
    Каналы : 6 каналов
    Расположение каналов : Front: L C R, Side: L R, LFE
    Частота : 48, 0 КГц
    Частота кадров : 31, 250 кадров/сек (1536 SPF)
    Битовая глубина : 16 бит
    Метод сжатия : С потерями
    Размер потока : 336 Мбайт (2%)
    Заголовок : Перевод: Авторский одноголосый (А. Матвеев) - ненормативная лексика
    Язык : Russian
    Service kind : Complete Main
    Default : Нет
    Forced : Нет
    Аудио #5
    Идентификатор : 9
    Формат : AC-3
    Формат/Информация : Audio Coding 3
    Параметр Endianness формата : Big
    Идентификатор кодека : A_AC3
    Продолжительность : 2 ч. 2 м.
    Вид битрейта : Постоянный
    Битрейт : 640 Кбит/сек
    Каналы : 6 каналов
    Расположение каналов : Front: L C R, Side: L R, LFE
    Частота : 48, 0 КГц
    Частота кадров : 31, 250 кадров/сек (1536 SPF)
    Битовая глубина : 16 бит
    Метод сжатия : С потерями
    Размер потока : 560 Мбайт (4%)
    Заголовок : Перевод: Авторский одноголосый (Ю. Живов)
    Язык : Russian
    Service kind : Complete Main
    Default : Нет
    Forced : Нет
    Текст #1
    Идентификатор : 3
    Формат : PGS
    Режим смешивания : zlib
    Идентификатор кодека : S_HDMV/PGS
    Идентификатор кодека/Информация : Picture based subtitle format used on BDs/HD-DVDs
    Продолжительность : 1 ч. 49 м.
    Битрейт : 13, 9 Кбит/сек
    Count of elements : 1338
    Размер потока : 11, 0 Мбайт (0%)
    Язык : English
    Default : Нет
    Forced : Нет
    Текст #2
    Идентификатор : 4
    Формат : PGS
    Режим смешивания : zlib
    Идентификатор кодека : S_HDMV/PGS
    Идентификатор кодека/Информация : Picture based subtitle format used on BDs/HD-DVDs
    Продолжительность : 1 ч. 54 м.
    Битрейт : 17, 8 Кбит/сек
    Count of elements : 1862
    Размер потока : 14, 5 Мбайт (0%)
    Заголовок : SDH
    Язык : English
    Default : Нет
    Forced : Нет
    Текст #3
    Идентификатор : 8
    Формат : UTF-8
    Идентификатор кодека : S_TEXT/UTF8
    Идентификатор кодека/Информация : UTF-8 Plain Text
    Продолжительность : 1 ч. 53 м.
    Битрейт : 37 бит/сек
    Count of elements : 500
    Размер потока : 30, 9 Кбайт (0%)
    Заголовок : Полные (Doctor_Joker - ненорматив!)
    Язык : Russian
    Default : Нет
    Forced : Нет
    Меню
    00: 00: 00.000 : en: 00: 00: 00.000
    00: 06: 31.683 : en: 00: 06: 31.683
    00: 16: 57.934 : en: 00: 16: 57.934
    00: 26: 35.594 : en: 00: 26: 35.594
    00: 34: 38.034 : en: 00: 34: 38.034
    00: 42: 07.817 : en: 00: 42: 07.817
    00: 48: 07.051 : en: 00: 48: 07.051
    00: 56: 41.648 : en: 00: 56: 41.648
    01: 01: 42.782 : en: 01: 01: 42.782
    01: 10: 27.682 : en: 01: 10: 27.682
    01: 17: 15.923 : en: 01: 17: 15.923
    01: 24: 22.641 : en: 01: 24: 22.641
    01: 32: 11.234 : en: 01: 32: 11.234
    01: 40: 01.329 : en: 01: 40: 01.329
    01: 46: 34.763 : en: 01: 46: 34.763
    01: 54: 01.043 : en: 01: 54: 01.043
    XMP
    Xmp.video.FileName : M: ФильмыИностранныеДжон Уик (John Wick)2017 Джон Уик 2 (John Wick. Chapter 2).mkv
    Xmp.video.FileSize : -9.53674e-007
    Xmp.video.MimeType : video/matroska
    Xmp.video.EBMLVersion : 1
    Xmp.video.EBMLReadVersion : 1
    Xmp.video.DocType : matroska
    Xmp.video.DocTypeVersion : 4
    Xmp.video.DocTypeReadVersion : 2
    Xmp.video.TimecodeScale : 0.001
    Xmp.video.MuxingApp : libebml v1.3.7 + libmatroska v1.5.0
    Xmp.video.WritingApp : mkvmerge v34.0.0 (\'Sight and Seen\') 64-bit
    Xmp.video.Duration : 7343264
    Xmp.video.DateUTC : 594203330
    Xmp.video.Title : Джон Уик 2/John Wick: Chapter Two
    Xmp.video.TotalStream : 123
    Xmp.video.TrackLacing : No
    Xmp.video.Codec : V_MPEGH/ISO/HEVC
    Xmp.video.FrameRate : 23.976
    Xmp.video.TrackName : Перевод: Авторский РѕРґРЅРѕРіРѕРосый (Р®. Р–РёРІРѕРІ)
    Xmp.video.Width : 3840
    Xmp.video.Height : 1600
    Xmp.audio.DefaultOn : No
    Xmp.audio.Compressor : A_AC3
    Xmp.audio.DefaultDuration : 32000
    Xmp.audio.SampleRate : 48000
    Xmp.video.SubTDefaultOn : No
    Xmp.video.SubTTrackLacing : No
    Xmp.video.SubTCodec : S_TEXT/UTF8
    Xmp.audio.TrackLang : rus
    Xmp.video.SubTLang : rus
    Xmp.video.AttachFileName : cover.jpg
    Xmp.video.AttachFileMIME : image/jpeg
    Xmp.video.AttachFileUID : -2406298743734778433
    Xmp.video.AttachFileDesc : Cover
    Xmp.video.AspectRatio : 2.4
    H.265/HEVC (High Efficiency Video Coding) - это новый стандарт кодирования видео.
    *Рипы в фомате HEVC, в настоящее время поддерживается не всеми аппаратными проигрывателями.
    *Для корректного воспроизведения может потребоваться обновление ПО.
    *Стандарт H.265/HEVC является логическим продолжением стандарта H.264/AVC (Advanced Video Coding), и характеризуется более эффективными алгоритмами сжатия, а также поддержкой высокого разрешения вплоть до 8K UHD (8192x4320). Первая версия стандарта H.265 была опубликована в начале 2013 года.
    Любителям решения из коробки - установить последнюю версию на выбор:
    Media Player Classic - Black Edition (MPC-BE)
    VLC media player
    Daum Pot Player
    GOM Media Player
    Любителям WMP и других плееров, использующих по умолчанию для воспроизведения системные кодеки+сплитеры - установить K-Lite Codec Pack версии 10.1.0 и выше.
    Любимые плееры, не использующии по умолчанию для воспроизведения системные кодеки+сплитеры, нужно перенастроить на использование оных.Исходный диск на Blu-ray.com
    Просмотр 4K HDR-контента на ПК

    Скриншоты для ознакомления



    Джон Уик 2 в Клубе Джон Уик 3/John Wick: Chapter 3 - Parabellum (2019) UHD BDRip H.265/2160p 4K, HDR, 10-bit
    Производство: США/87Eleven, Lionsgate, Summit Entertainment, Thunder Road
    Жанр: Боевик, Триллер, Криминал
    Режиссер: Чад Стахелски

    Актеры
    Марк Дакаскос, Азия Диллон, Анжелика Хьюстон, Саид Тагмауи

    Описание

    Суперкиллер Джон Уик после нарушения кодекса тайной гильдии ассасинов получает статус изгоя — экскомьюникадо. За его голову назначена цена в 14 миллионов долларов, и армия самых жестоких профессиональных убийц со всего мира открывает на него кровавую охоту.

    Возраст: 18+ (зрителям, достигшим 18 лет. запрещено для детей)
    Рейтинг MPAA: R (лицам до 17 лет обязательно присутствие взрослого)
    Релиз от: DTOne
    Продолжительность: 02: 10: 46
    Качество видео: UHD BDRip
    Перевод: Дублированный, Авторский, Многоголосый любительский
    Субтитры: русские (форсированные), английские (полные, для слабослышащих)
    Видео: HEVC/H.265, 3840x1600, ~15, 6 Mbps
    Аудио 1: AC3, 6 ch, 640 Kbps (английский)
    Аудио 2: AC3, 6 ch, 384 Kbps (русский, дубляж - iTunes)
    Аудио 3: AC3, 6 ch, 640 Kbps (русский, одноголосый - Д. Есарев (ненормативная лексика)
    Аудио 4: AC3, 2 ch, 192 Kbps (русский, многоголосый - HDRezka Studio)
    Общее
    Уникальный идентификатор : 97528852653450927054782012380960049804 (0x495F5FAFD4738430C1833BE23F8CCA8C)
    Полное имя : M: ФильмыИностранныеДжон Уик (John Wick)2019 Джон Уик 3 (John Wick. Chapter 3 - Parabellum).mkv
    Формат : Matroska
    Версия формата : Version 4/Version 2
    Размер файла : 15, 9 Гбайт
    Продолжительность : 2 ч. 10 м.
    Общий поток : 17, 4 Мбит/сек
    Название фильма : Джон Уик 3/John Wick: Chapter 3 - Parabellum
    Кодирование произвёл : DTOne
    Дата выпуска : 2019
    Дата кодирования : UTC 2019-11-10 05: 48: 33
    Программа кодирования : mkvmerge v34.0.0 (\'Sight and Seen\') 64-bit
    Библиотека кодирования : libebml v1.3.7 + libmatroska v1.5.0
    Обложка : Yes
    Attachments : cover.png
    Released by : Buba5473 for NNM-Club
    Видео
    Идентификатор : 1
    Формат : HEVC
    Формат/Информация : High Efficiency Video Coding
    Профиль формата : Main10@L5.1@High
    Идентификатор кодека : V_MPEGH/ISO/HEVC
    Продолжительность : 2 ч. 10 м.
    Битрейт : 15, 6 Мбит/сек
    Ширина : 3840 пикселей
    Высота : 1600 пикселей
    Соотношение сторон : 2, 40: 1
    Режим частоты кадров : Постоянный
    Частота кадров : 23, 976 (24000/1001) кадра/сек
    Цветовое пространство : YUV
    Субдискретизация насыщенности : 4: 2: 0
    Битовая глубина : 10 бит
    Бит/(Пиксели*Кадры) : 0.106
    Размер потока : 14, 2 Гбайт (89%)
    Заголовок : John.Wick.Chapter.3.Parabellum.2019.MULTi.UHD.BluRay.2160p.HDR.Atmos.7.1.HEVC-DTOne
    Язык : English
    Default : Да
    Forced : Нет
    Color range : Limited
    Основные цвета : BT.2020
    Характеристики трансфера : SMPTE ST 2084
    Коэффициенты матрицы : BT.2020 non-constant
    Mastering display color primaries : R: x=0.680000 y=0.320000, G: x=0.265000 y=0.690000, B: x=0.150000 y=0.060000, White point: x=0.312700 y=0.329000
    Mastering display luminance : min: 0.0001 cd/m2, max: 1000.0000 cd/m2
    Maximum Content Light Level : 1000 cd/m2
    Maximum Frame-Average Light Level : 358 cd/m2
    Аудио #1
    Идентификатор : 2
    Формат : AC-3
    Формат/Информация : Audio Coding 3
    Параметр Endianness формата : Big
    Идентификатор кодека : A_AC3
    Продолжительность : 2 ч. 10 м.
    Вид битрейта : Постоянный
    Битрейт : 640 Кбит/сек
    Каналы : 6 каналов
    Расположение каналов : Front: L C R, Side: L R, LFE
    Частота : 48, 0 КГц
    Частота кадров : 31, 250 кадров/сек (1536 SPF)
    Битовая глубина : 16 бит
    Метод сжатия : С потерями
    Размер потока : 599 Мбайт (4%)
    Заголовок : AC3 5.1-EX
    Язык : English
    Service kind : Complete Main
    Default : Нет
    Forced : Нет
    Аудио #2
    Идентификатор : 5
    Формат : AC-3
    Формат/Информация : Audio Coding 3
    Параметр Endianness формата : Big
    Идентификатор кодека : A_AC3
    Продолжительность : 2 ч. 10 м.
    Вид битрейта : Постоянный
    Битрейт : 384 Кбит/сек
    Каналы : 6 каналов
    Расположение каналов : Front: L C R, Side: L R, LFE
    Частота : 48, 0 КГц
    Частота кадров : 31, 250 кадров/сек (1536 SPF)
    Битовая глубина : 16 бит
    Метод сжатия : С потерями
    Размер потока : 359 Мбайт (2%)
    Заголовок : Перевод: Профессиональный дублированный (iTunes)
    Язык : Russian
    Service kind : Complete Main
    Default : Да
    Forced : Нет
    Аудио #3
    Идентификатор : 6
    Формат : AC-3
    Формат/Информация : Audio Coding 3
    Параметр Endianness формата : Big
    Идентификатор кодека : A_AC3
    Продолжительность : 2 ч. 10 м.
    Вид битрейта : Постоянный
    Битрейт : 640 Кбит/сек
    Каналы : 6 каналов
    Расположение каналов : Front: L C R, Side: L R, LFE
    Частота : 48, 0 КГц
    Частота кадров : 31, 250 кадров/сек (1536 SPF)
    Битовая глубина : 16 бит
    Метод сжатия : С потерями
    Размер потока : 599 Мбайт (4%)
    Заголовок : Перевод: Одноголосый закадровый (Д. Есарев)
    Язык : Russian
    Service kind : Complete Main
    Default : Нет
    Forced : Нет
    Аудио #4
    Идентификатор : 7
    Формат : AC-3
    Формат/Информация : Audio Coding 3
    Параметр Endianness формата : Big
    Идентификатор кодека : A_AC3
    Продолжительность : 2 ч. 10 м.
    Вид битрейта : Постоянный
    Битрейт : 192 Кбит/сек
    Каналы : 2 канала
    Расположение каналов : Front: L R
    Частота : 48, 0 КГц
    Частота кадров : 31, 250 кадров/сек (1536 SPF)
    Битовая глубина : 16 бит
    Метод сжатия : С потерями
    Размер потока : 180 Мбайт (1%)
    Заголовок : Перевод: Многоголосый закадровый (HDRezka Studio)
    Язык : Russian
    Service kind : Complete Main
    Default : Нет
    Forced : Нет
    Текст #1
    Идентификатор : 3
    Формат : PGS
    Режим смешивания : zlib
    Идентификатор кодека : S_HDMV/PGS
    Идентификатор кодека/Информация : Picture based subtitle format used on BDs/HD-DVDs
    Продолжительность : 1 ч. 59 м.
    Битрейт : 17, 0 Кбит/сек
    Count of elements : 1370
    Размер потока : 14, 6 Мбайт (0%)
    Заголовок : English
    Язык : English
    Default : Нет
    Forced : Нет
    Текст #2
    Идентификатор : 4
    Формат : PGS
    Режим смешивания : zlib
    Идентификатор кодека : S_HDMV/PGS
    Идентификатор кодека/Информация : Picture based subtitle format used on BDs/HD-DVDs
    Продолжительность : 2 ч. 0 м.
    Битрейт : 22, 1 Кбит/сек
    Count of elements : 2042
    Размер потока : 19, 1 Мбайт (0%)
    Заголовок : English (SDH)
    Язык : English
    Default : Нет
    Forced : Нет
    Текст #3
    Идентификатор : 8
    Формат : UTF-8
    Идентификатор кодека : S_TEXT/UTF8
    Идентификатор кодека/Информация : UTF-8 Plain Text
    Продолжительность : 1 ч. 47 м.
    Битрейт : 1 бит/сек
    Count of elements : 25
    Размер потока : 1010 байт (0%)
    Заголовок : Форсированные
    Язык : Russian
    Default : Да
    Forced : Да
    Меню
    00: 00: 00.000 : en: Chapter 01
    00: 08: 46.860 : en: Chapter 02
    00: 14: 06.763 : en: Chapter 03
    00: 22: 40.401 : en: Chapter 04
    00: 31: 26.301 : en: Chapter 05
    00: 37: 51.311 : en: Chapter 06
    00: 47: 43.319 : en: Chapter 07
    00: 57: 09.176 : en: Chapter 08
    01: 02: 56.439 : en: Chapter 09
    01: 14: 27.672 : en: Chapter 10
    01: 20: 36.665 : en: Chapter 11
    01: 28: 48.365 : en: Chapter 12
    01: 33: 51.793 : en: Chapter 13
    01: 41: 31.794 : en: Chapter 14
    01: 53: 44.651 : en: Chapter 15
    01: 59: 51.434 : en: Chapter 16
    XMP
    Xmp.video.FileName : M: ФильмыИностранныеДжон Уик (John Wick)2019 Джон Уик 3 (John Wick. Chapter 3 - Parabellum).mkv
    Xmp.video.FileSize : -9.53674e-007
    Xmp.video.MimeType : video/matroska
    Xmp.video.EBMLVersion : 1
    Xmp.video.EBMLReadVersion : 1
    Xmp.video.DocType : matroska
    Xmp.video.DocTypeVersion : 4
    Xmp.video.DocTypeReadVersion : 2
    Xmp.video.TimecodeScale : 0.001
    Xmp.video.MuxingApp : libebml v1.3.7 + libmatroska v1.5.0
    Xmp.video.WritingApp : mkvmerge v34.0.0 (\'Sight and Seen\') 64-bit
    Xmp.video.Duration : 7846304
    Xmp.video.DateUTC : 595057713
    Xmp.video.Title : Джон Уик 3/John Wick: Chapter 3 - Parabellum
    Xmp.video.TotalStream : 175
    Xmp.video.TrackLacing : No
    Xmp.video.Codec : V_MPEGH/ISO/HEVC
    Xmp.video.FrameRate : 23.976
    Xmp.video.TrackName : English forced
    Xmp.video.Width : 3840
    Xmp.video.Height : 1600
    Xmp.audio.DefaultOn : No
    Xmp.audio.Compressor : A_AC3
    Xmp.audio.DefaultDuration : 32000
    Xmp.audio.SampleRate : 48000
    Xmp.video.SubTDefaultOn : No
    Xmp.video.SubTTrackLacing : No
    Xmp.video.SubTCodec : S_TEXT/UTF8
    Xmp.audio.TrackLang : rus
    Xmp.audio.ChannelType : Stereo
    Xmp.video.SubTTrackForced : Yes
    Xmp.video.SubTLang : ukr
    Xmp.video.AttachFileName : cover.png
    Xmp.video.AttachFileMIME : image/png
    Xmp.video.AttachFileUID : -5177109682402843263
    Xmp.video.AspectRatio : 2.4
    H.265/HEVC (High Efficiency Video Coding) - это новый стандарт кодирования видео.
    *Рипы в фомате HEVC, в настоящее время поддерживается не всеми аппаратными проигрывателями.
    *Для корректного воспроизведения может потребоваться обновление ПО.
    *Стандарт H.265/HEVC является логическим продолжением стандарта H.264/AVC (Advanced Video Coding), и характеризуется более эффективными алгоритмами сжатия, а также поддержкой высокого разрешения вплоть до 8K UHD (8192x4320). Первая версия стандарта H.265 была опубликована в начале 2013 года.
    Любителям решения из коробки - установить последнюю версию на выбор:
    Media Player Classic - Black Edition (MPC-BE)
    VLC media player
    Daum Pot Player
    GOM Media Player
    Любителям WMP и других плееров, использующих по умолчанию для воспроизведения системные кодеки+сплитеры - установить K-Lite Codec Pack версии 10.1.0 и выше.
    Любимые плееры, не использующии по умолчанию для воспроизведения системные кодеки+сплитеры, нужно перенастроить на использование оных.Диск на Blu-ray.com
    Просмотр 4K HDR-контента на ПК

    Скриншоты для ознакомления



    Джон Уик 3 в Клубе H.265/HEVC (High Efficiency Video Coding) - это новый стандарт кодирования видео.
    *Рипы в фомате HEVC, в настоящее время поддерживается не всеми аппаратными проигрывателями.
    *Для корректного воспроизведения может потребоваться обновление ПО.
    *Стандарт H.265/HEVC является логическим продолжением стандарта H.264/AVC (Advanced Video Coding), и характеризуется более эффективными алгоритмами сжатия, а также поддержкой высокого разрешения вплоть до 8K UHD (8192x4320). Первая версия стандарта H.265 была опубликована в начале 2013 года.
    Любителям решения из коробки - установить последнюю версию на выбор:
    Media Player Classic - Black Edition (MPC-BE)
    VLC media player
    Daum Pot Player
    GOM Media Player
    Любителям WMP и других плееров, использующих по умолчанию для воспроизведения системные кодеки+сплитеры - установить K-Lite Codec Pack версии 10.1.0 и выше.
    Любимые плееры, не использующии по умолчанию для воспроизведения системные кодеки+сплитеры, нужно перенастроить на использование оных.Производство: Китай, США, Гонконг/87Eleven, Lionsgate, Summit Entertainment, Thunder Road, DefyNite Films, MJW Films
    Жанр: Боевик, Триллер, Криминал
    Режиссер: Чад Стахелски, Дэвид Литч

    Актеры
    Киану Ривз, Микаэл Нюквист, Иэн МакШейн, Лэнс Реддик, Дэниэл Бернхард, Бриджет Риган, Эдрианн Палики, Элфи Оуэн-Аллен, Уиллем Дефо, Дин Уинтерс, Омер Барнеа, Тоби Мур, Бриджет Мойнэхэн

    Описание

    Джон Уик - американская медиафраншиза, состоящая из боевиков, созданных Дереком Колстадом и режиссёром Чадом Стахелски. Первый фильм также включал Дэвида Литча как некредитованного сорежиссера. Киану Ривз играет одноименного персонажа, бывшего наёмного убийцу жаждущего мести.
    Серия началась в 2014 году с выпуска Джона Уика. За ним последовал сиквел, который было выпущен в 2017 году. Оба фильма были успешными как в критическом, так и в коммерческом отношении. Первый фильм собрал 88, 8 млн. долл. США по всему миру и имеет 86% рейтинг одобрения Rotten Tomatoes, в то время как второй фильм получил оценку 89% и собрал 171, 2 млн. долл. США во всем мире.
    Третий фильм был выпущен 17 мая 2019 года. Франшиза будет продолжатся в виде дополнительных фильмов, а также телесериала под названием Континенталь от канала Starz.
    Продолжительность: 01: 41: 12/02: 02: 23/02: 10: 46
    Перевод: Дублированный, Авторский, Многоголосый закадровый
    Субтитры: русские, английские


    Скриншоты для ознакомления



    Все одноименные релизы в Клубе
    Время раздачи: с 11: 00 до 21: 00 по Новосибирску (UTC +7) (до появления первых 3-5 скачавших)

    Онлайн видео Джон Уик



    Джон Уик/John Wick (2014-2019) UHD BDRip [H.265/2160p-LQ] [4K, HDR, 10-bit] [PR] [Трилогия]
    Рейтинг →
     (голосов: 1, оценка 4/5, голосовать можно 1 раз )

    Другие торренты по теме:

  • Джон Уик / John Wick (2014) WEBRip [1080p] [Трейлер]
  • Представь себе: Джон Леннон / Imagine - John Lennon (1988) HDTV [720p] скачать через торрент бесплатно
  • Джон Уик / John Wick (2014) CamRip [H.264] [EN]
  • Джон Уик / John Wick (2014) CamRip скачать через торрент бесплатно
  • Джон Кью / John Q. (2002) BDRip [576p] iPad
  • Tyler Bates & Joel J Richard - Джон Уик / John Wick (Original Motion Picture Soundtrack) (2014) [MP3|320 кб / с]<Soundtrack> скачать через торрент бесплатно
  • Джон Уик / John Wick (2014) CamRip
  • Джон Уик / John Wick (2014) WEB-DLRip [звук с TS] скачать через торрент бесплатно


    • Комментарии (0):

      Информация

      Информация

        Посетители, находящиеся в группе Гости, не могут оставлять комментарии в данной новости.

        ↓ Меню




        ↓ Опрос

        Вы добавили сайт в закладки?
        Да
        Нет


        Популярное