.
Авторизация | Регистрация
bitok.xyz
» » И Ниночка снимает свои штанишки / Auch Ninotschka zieht ihr Hoschen aus (1973) DVDRip [AVO] торрент скачать бесплатно


    И Ниночка снимает свои штанишки / Auch Ninotschka zieht ihr Hoschen aus (1973) DVDRip [AVO] торрент скачать бесплатно

    Дата: 1-01-2020, 05:00 | .torrent скачали: 0

    И Ниночка снимает свои штанишки / Auch Ninotschka zieht ihr Hoschen aus (1973) DVDRip [AVO]Производство: Германия (ФРГ)/ CTV 72 Film und Fernsehproduktion GmbH
    Жанр: Комедия
    Режиссер: Клаус Тинней

    Актеры
    Ринальдо Таламонти, Эльма Карлова, Франц Мюксенедер, Юрген Файндт, Эрих Падалевски, Бритт Корвин, Александра Богоджевич, Кристина Ванка, Элизабет Фолькманн, Карин Хеск

    Описание

    Партия направляет Петра Чехова вместе с тремя передовицами труда на выставку в Мюнхен, чтобы продать предлагаемые Советским Союзом товары: меха, икру, водку и племенных свиней. Однако по прибытии на вокзал советскую делегацию принимают за направлявшихся в фешенебельный бордель мадам Меди девушек известного сутенера Фреда Хубера. Попав в публичный дом советские комсомолки вместе со своим энергичным руководителем нисколько не растерялись и быстро завоевали симпатии взыскательной публики. А вот подопечным Хубера, вынужденным занять места на выставочном стенде, пришлось гораздо тяжелее…

    Рейтинг MPAA: R (лицам до 17 лет обязательно присутствие взрослого)
    Продолжительность: 01: 17: 54
    Качество видео: DVDRip
    Перевод: Авторский (А.Дольский)
    Субтитры: Отсутствуют
    Видео: Xvid, 720x400, ~1192 kbps
    Аудио: MP3, 2 ch, 128 kbps - Русский (AVO)
    Общее
    Полное имя : E: И Ниночка снимает свои штанишки. 1973.740mb.avi
    Формат : AVI
    Формат/Информация : Audio Video Interleave
    Размер файла : 741 Мбайт
    Продолжительность : 1 ч. 17 м.
    Общий поток : 1330 Кбит/сек
    Программа кодирования : VirtualDubMod 1.5.10.3 |www.virtualdub-fr.org|| (build 2550/release)
    Библиотека кодирования : VirtualDubMod build 2550/release
    Видео
    Идентификатор : 0
    Формат : MPEG-4 Visual
    Профиль формата : Advanced Simple@L5
    Параметр BVOP формата : 1
    Параметр QPel формата : Нет
    Параметр GMC формата : Без точки перехода
    Параметр матрицы формата : Выборочная
    Идентификатор кодека : XVID
    Идентификатор кодека/Подсказка : XviD
    Продолжительность : 1 ч. 17 м.
    Битрейт : 1192 Кбит/сек
    Ширина : 720 пикселей
    Высота : 400 пикселей
    Соотношение сторон : 16: 9
    Частота кадров : 25, 000 кадров/сек
    Цветовое пространство : YUV
    Субдискретизация насыщенности : 4: 2: 0
    Битовая глубина : 8 бит
    Тип развёртки : Прогрессивная
    Метод сжатия : С потерями
    Бит/(Пиксели*Кадры) : 0.166
    Размер потока : 665 Мбайт (90%)
    Библиотека кодирования : XviD 73
    Аудио
    Идентификатор : 1
    Формат : MPEG Audio
    Версия формата : Version 1
    Профиль формата : Layer 3
    Идентификатор кодека : 55
    Идентификатор кодека/Подсказка : MP3
    Продолжительность : 1 ч. 17 м.
    Вид битрейта : Постоянный
    Битрейт : 128 Кбит/сек
    Каналы : 2 канала
    Частота : 48, 0 КГц
    Метод сжатия : С потерями
    Размер потока : 71, 3 Мбайт (10%)
    Выравнивание : Соединение по промежуткам
    Продолжительность промежутка : 40 мс. (1, 00 видеокадр)
    Время предзагрузки промежутка : 504 мс.
    Библиотека кодирования : LAME3.99r
    Настройки программы : -m s -V 4 -q 2 -lowpass 17 -b 128

    Скриншоты для ознакомления




    Все одноименные релизы в Клубе
    Время раздачи: с 08.00 до 24.00 (до появления первых 3-5 скачавших)

    Онлайн видео И Ниночка снимает свои штанишки



    И Ниночка снимает свои штанишки/Auch Ninotschka zieht ihr Hoschen aus (1973) DVDRip [AVO]
    Рейтинг →
     (голосов: 1, оценка 5/5, голосовать можно 1 раз )

    Другие торренты по теме:

  • И Ниночка снимает свои штанишки / Auch Ninotschka zieht ihr Hoschen aus (1973) DVDRip [H.264] [AVO]


    • Комментарии (0):

      Информация

      Информация

        Посетители, находящиеся в группе Гости, не могут оставлять комментарии в данной новости.

        ↓ Меню




        ↓ Опрос

        Вы добавили сайт в закладки?
        Да
        Нет


        Популярное