.
Авторизация | Регистрация
bitok.xyz
» » Жажда смерти / Death Wish (2018) BDRip [H.264] торрент скачать бесплатно


    Жажда смерти / Death Wish (2018) BDRip [H.264] торрент скачать бесплатно

    Дата: 1-01-2020, 05:00 | .torrent скачали: 0

    Жажда смерти / Death Wish (2018) BDRip [H.264]Производство: США, Канада, Metro-Goldwyn-Mayer (MGM), Paramount Pictures, Spy Kids 4 SPV
    Жанр: Боевик, триллер, криминал
    Режиссер: Элай Рот
    Продюсер: Роджер Бирнбаум, Марк Котон, Стивен Дж. Идс

    Актеры
    Брюс Уиллис, Винсент Д`Онофрио, Элизабет Шу, Камила Морроне, Дин Норрис, Бо Напп, Кимберли Элиз, Лен Кариу, Джек Кеси, Ронни Джин Блевинс

    Описание

    Пол Керси — хирург, привыкший вытаскивать людей с того света после криминальных разборок. Но после того, как его жена и дочь становятся жертвами уличной банды, а полиция бездействует, он берет карающий меч правосудия в свои руки. Видео изобретательных убийств преступников покоряют интернет-топы, а среди жителей города расходятся слухи о неуловимом народном мстителе, которому теперь принадлежит весь город. Он мстит бодро, весело и со вкусом.

    Возраст: 18+ (зрителям, достигшим 18 лет. запрещено для детей)
    Рейтинг MPAA: R (лицам до 17 лет обязательно присутствие взрослого)
    Релиз от: OlLanDGroup
    Продолжительность: 01: 46: 43
    Качество видео: BDRip
    Перевод: Дублированный (R5)
    Субтитры: Русские (Full), Английские (Full)
    Видео: AVC/H.264, 720x300, ~912 kbps
    Аудио: AAC, 2 ch, 64 kbps - Русский (R5)
    General
    Unique ID : 89381618491148447734711141884529442391 (0x433E4607919932BF3B1A4F82EA5F7E57)
    Complete name : D: OlLanDGroupDeath.Wish.2018.BDRip(AVC).OlLanDGroup.mkv
    Format : Matroska
    Format version : Version 4
    File size : 746 MiB
    Duration : 1 h 46 min
    Overall bit rate : 977 kb/s
    Movie name : Death.Wish.2018.BDRip(AVC).OlLanDGroup#Skandar#
    Encoded date : UTC 2019-12-31 05: 08: 21
    Writing application : mkvmerge v31.0.0 (\'Dolores In A Shoestand\') 64-bit
    Writing library : libebml v1.3.6 + libmatroska v1.4.9
    Video
    ID : 1
    Format : AVC
    Format/Info : Advanced Video Codec
    Format profile : High@L4.1
    Format settings : CABAC/10 Ref Frames
    Format settings, CABAC : Yes
    Format settings, ReFrames : 10 frames
    Codec ID : V_MPEG4/ISO/AVC
    Duration : 1 h 46 min
    Bit rate : 912 kb/s
    Width : 720 pixels
    Height : 300 pixels
    Display aspect ratio : 2.40: 1
    Frame rate mode : Constant
    Frame rate : 23.976 (24000/1001) FPS
    Color space : YUV
    Chroma subsampling : 4: 2: 0
    Bit depth : 8 bits
    Scan type : Progressive
    Bits/(Pixel*Frame) : 0.176
    Stream size : 695 MiB (93%)
    Title : Death.Wish.2018.BDRip(AVC).OlLanDGroup#Skandar#
    Writing library : x264 core 146 r2538 121396c
    Encoding settings : cabac=1/ref=10/deblock=1: -3: -3/analyse=0x3: 0x133/me=umh/subme=11/psy=1/psy_rd=0.97: 0.05/mixed_ref=1/me_range=48/chroma_me=1/trellis=2/8x8dct=1/cqm=0/deadzone=21, 11/fast_pskip=0/chroma_qp_offset=-3/threads=6/lookahead_threads=1/sliced_threads=0/nr=0/decimate=0/interlaced=0/bluray_compat=0/constrained_intra=0/bframes=11/b_pyramid=2/b_adapt=2/b_bias=0/direct=3/weightb=1/open_gop=0/weightp=2/keyint=240/keyint_min=23/scenecut=40/intra_refresh=0/rc_lookahead=40/rc=2pass/mbtree=0/bitrate=912/ratetol=1.0/qcomp=0.60/qpmin=0/qpmax=69/qpstep=4/cplxblur=20.0/qblur=0.5/vbv_maxrate=50000/vbv_bufsize=62500/nal_hrd=none/filler=0/ip_ratio=1.40/pb_ratio=1.30/aq=1: 1.00
    Language : English
    Default : Yes
    Forced : No
    Audio
    ID : 2
    Format : AAC LC SBR
    Format/Info : Advanced Audio Codec Low Complexity with Spectral Band Replication
    Commercial name : HE-AAC
    Format settings : Explicit
    Codec ID : A_AAC-2
    Duration : 1 h 46 min
    Bit rate : 64.0 kb/s
    Channel(s) : 2 channels
    Channel layout : L R
    Sampling rate : 48.0 kHz
    Frame rate : 23.438 FPS (2048 SPF)
    Compression mode : Lossy
    Delay relative to video : 31 ms
    Stream size : 48.9 MiB (7%)
    Title : DUB | R5
    Language : Russian
    Default : Yes
    Forced : No
    Text #1
    ID : 3
    Format : UTF-8
    Codec ID : S_TEXT/UTF8
    Codec ID/Info : UTF-8 Plain Text
    Duration : 1 h 39 min
    Bit rate : 99 b/s
    Count of elements : 1313
    Stream size : 72.3 KiB (0%)
    Title : Full
    Language : Russian
    Default : No
    Forced : No
    Text #2
    ID : 4
    Format : UTF-8
    Codec ID : S_TEXT/UTF8
    Codec ID/Info : UTF-8 Plain Text
    Duration : 1 h 39 min
    Bit rate : 63 b/s
    Count of elements : 1568
    Stream size : 46.6 KiB (0%)
    Title : Full
    Language : English
    Default : No
    Forced : No
    Text #3
    ID : 5
    Format : UTF-8
    Codec ID : S_TEXT/UTF8
    Codec ID/Info : UTF-8 Plain Text
    Duration : 1 h 43 min
    Bit rate : 69 b/s
    Count of elements : 1755
    Stream size : 52.5 KiB (0%)
    Title : SDH
    Language : English
    Default : No
    Forced : No
    Menu
    00: 00: 00.000 : en: 00: 00: 00.000
    00: 05: 39.089 : en: 00: 05: 39.089
    00: 08: 51.239 : en: 00: 08: 51.239
    00: 11: 55.798 : en: 00: 11: 55.798
    00: 19: 12.860 : en: 00: 19: 12.860
    00: 24: 34.139 : en: 00: 24: 34.139
    00: 28: 37.174 : en: 00: 28: 37.174
    00: 32: 45.964 : en: 00: 32: 45.964
    00: 36: 15.840 : en: 00: 36: 15.840
    00: 43: 49.168 : en: 00: 43: 49.168
    00: 47: 10.411 : en: 00: 47: 10.411
    00: 53: 49.518 : en: 00: 53: 49.518
    00: 56: 56.330 : en: 00: 56: 56.330
    01: 00: 27.082 : en: 01: 00: 27.082
    01: 07: 55.154 : en: 01: 07: 55.154
    01: 11: 16.564 : en: 01: 11: 16.564
    01: 15: 52.256 : en: 01: 15: 52.256
    01: 19: 23.926 : en: 01: 19: 23.926
    01: 22: 41.415 : en: 01: 22: 41.415
    01: 25: 43.889 : en: 01: 25: 43.889
    01: 28: 20.837 : en: 01: 28: 20.837
    01: 31: 24.813 : en: 01: 31: 24.813
    01: 37: 14.537 : en: 01: 37: 14.537
    01: 40: 07.585 : en: 01: 40: 07.585

    Скриншоты для ознакомления




    Все одноименные релизы в Клубе
    Время раздачи: 24/7 (круглосуточно) (до появления первых 3-5 скачавших)

    Онлайн видео Жажда смерти



    Жажда смерти/Death Wish (2018) BDRip [H.264]
    Рейтинг →
     (голосов: 1, оценка 4/5, голосовать можно 1 раз )

    Другие торренты по теме:

  • Жажда смерти 5: Лик смерти / Death Wish V: The Face of Death (1993) BDRip [H.264]
  • Жажда смерти / Death Wish (1974) BDRip [H.264 / 720p-LQ]
  • Жажда смерти / Death Wish (2018) TS [MVO] [AD]
  • Жажда смерти / Death Wish (2018) WEB-DLRip [Line, AD]
  • Жажда смерти / Death Wish (2018) WEB-DL [H.264 / 1080p-LQ] [EN / EN Sub]
  • Жажда смерти / Death Wish (2018) BDRip [H.264 / 1080p] [EN / EN Sub]
  • Жажда смерти / Death Wish (2018) BDRip [Line]
  • Жажда смерти / Death Wish (2018) BDRip [H.264 / 1080p] [Line]


    • Комментарии (0):

      Информация

      Информация

        Посетители, находящиеся в группе Гости, не могут оставлять комментарии в данной новости.

        ↓ Меню




        ↓ Опрос

        Вы добавили сайт в закладки?
        Да
        Нет


        Популярное